SHARE
TWEET

The Mule BluRay 720p

dirtyharrys Mar 22nd, 2019 88 Never
Not a member of Pastebin yet? Sign Up, it unlocks many cool features!
  1. General
  2. Unique ID                   : 72429557050213813980876214614325138033 (0x367D6CDF07BC53B02D5EB638F3CB1271)
  3. Complete name               : C:\QlJSVGhlTXVsZQ.mkv
  4. Format                      : Matroska
  5. Format version              : Version 4
  6. File size                   : 1.91 GiB
  7. Duration                    : 1 h 56 min
  8. Overall bit rate            : 2 343 kb/s
  9. Movie name                  : The Mule BR-RIP / The Mule BR-RIP
  10. Encoded date                : UTC 2019-03-22 06:53:43
  11. Writing application         : mkvmerge v30.1.0 ('Forever And More') 32-bit
  12. Writing library             : libebml v1.3.6 + libmatroska v1.4.9
  13. Copyright                   : Movies HDs 2019
  14. ARTIST                      : HarshLearner
  15.  
  16. Video
  17. ID                          : 1
  18. Format                      : AVC
  19. Format/Info                 : Advanced Video Codec
  20. Format profile              : High@L4.1
  21. Format settings             : CABAC / 4 Ref Frames
  22. Format settings, CABAC      : Yes
  23. Format settings, ReFrames   : 4 frames
  24. Codec ID                    : V_MPEG4/ISO/AVC
  25. Duration                    : 1 h 56 min
  26. Bit rate                    : 1 500 kb/s
  27. Width                       : 1 280 pixels
  28. Height                      : 536 pixels
  29. Display aspect ratio        : 2.40:1
  30. Frame rate mode             : Constant
  31. Frame rate                  : 23.976 (23976/1000) FPS
  32. Color space                 : YUV
  33. Chroma subsampling          : 4:2:0
  34. Bit depth                   : 8 bits
  35. Scan type                   : Progressive
  36. Bits/(Pixel*Frame)          : 0.091
  37. Stream size                 : 1.22 GiB (64%)
  38. Title                       : The Mule
  39. Writing library             : x264 core 152 r2851M ba24899
  40. Default                     : Yes
  41. Forced                      : No
  42.  
  43. Audio #1
  44. ID                          : 2
  45. Format                      : AC-3
  46. Format/Info                 : Audio Coding 3
  47. Commercial name             : Dolby Digital
  48. Codec ID                    : A_AC3
  49. Duration                    : 1 h 56 min
  50. Bit rate mode               : Constant
  51. Bit rate                    : 384 kb/s
  52. Channel(s)                  : 6 channels
  53. Channel layout              : L R C LFE Ls Rs
  54. Sampling rate               : 48.0 kHz
  55. Frame rate                  : 31.250 FPS (1536 SPF)
  56. Bit depth                   : 16 bits
  57. Compression mode            : Lossy
  58. Stream size                 : 320 MiB (16%)
  59. Language                    : English
  60. Service kind                : Complete Main
  61. Default                     : No
  62. Forced                      : No
  63.  
  64. Audio #2
  65. ID                          : 3
  66. Format                      : AC-3
  67. Format/Info                 : Audio Coding 3
  68. Commercial name             : Dolby Digital
  69. Codec ID                    : A_AC3
  70. Duration                    : 1 h 56 min
  71. Bit rate mode               : Constant
  72. Bit rate                    : 448 kb/s
  73. Channel(s)                  : 6 channels
  74. Channel layout              : L R C LFE Ls Rs
  75. Sampling rate               : 48.0 kHz
  76. Frame rate                  : 31.250 FPS (1536 SPF)
  77. Bit depth                   : 16 bits
  78. Compression mode            : Lossy
  79. Stream size                 : 373 MiB (19%)
  80. Language                    : Spanish
  81. Service kind                : Complete Main
  82. Default                     : Yes
  83. Forced                      : Yes
  84.  
  85. Text #1
  86. ID                          : 4
  87. Format                      : PGS
  88. Muxing mode                 : zlib
  89. Codec ID                    : S_HDMV/PGS
  90. Codec ID/Info               : Picture based subtitle format used on BDs/HD-DVDs
  91. Duration                    : 1 h 55 min
  92. Bit rate                    : 30.0 kb/s
  93. Count of elements           : 2928
  94. Stream size                 : 24.7 MiB (1%)
  95. Language                    : Spanish
  96. Default                     : No
  97. Forced                      : No
  98.  
  99. Text #2
  100. ID                          : 5
  101. Format                      : UTF-8
  102. Codec ID                    : S_TEXT/UTF8
  103. Codec ID/Info               : UTF-8 Plain Text
  104. Duration                    : 1 h 47 min
  105. Bit rate                    : 69 b/s
  106. Count of elements           : 1700
  107. Stream size                 : 54.7 KiB (0%)
  108. Language                    : English
  109. Default                     : No
  110. Forced                      : No
  111.  
  112. Text #3
  113. ID                          : 6
  114. Format                      : UTF-8
  115. Codec ID                    : S_TEXT/UTF8
  116. Codec ID/Info               : UTF-8 Plain Text
  117. Duration                    : 1 h 55 min
  118. Bit rate                    : 49 b/s
  119. Count of elements           : 1461
  120. Stream size                 : 42.2 KiB (0%)
  121. Language                    : Spanish
  122. Default                     : Yes
  123. Forced                      : Yes
  124.  
  125. Text #4
  126. ID                          : 7
  127. Format                      : UTF-8
  128. Codec ID                    : S_TEXT/UTF8
  129. Codec ID/Info               : UTF-8 Plain Text
  130. Duration                    : 1 h 54 min
  131. Bit rate                    : 2 b/s
  132. Count of elements           : 76
  133. Stream size                 : 2.29 KiB (0%)
  134. Language                    : Spanish
  135. Default                     : No
  136. Forced                      : No
  137.  
  138. Menu
  139. 00:00:00.000                : :Chapter 01
  140. 00:06:45.822                : :Chapter 02
  141. 00:15:27.885                : :Chapter 03
  142. 00:23:24.236                : :Chapter 04
  143. 00:32:22.482                : :Chapter 05
  144. 00:40:29.886                : :Chapter 06
  145. 00:57:55.347                : :Chapter 07
  146. 01:07:17.408                : :Chapter 08
  147. 01:16:17.364                : :Chapter 09
  148. 01:23:18.785                : :Chapter 10
  149. 01:32:20.160                : :Chapter 11
  150. 01:39:12.947                : :Chapter 12
  151. 01:46:17.580                : :Chapter 13
RAW Paste Data
We use cookies for various purposes including analytics. By continuing to use Pastebin, you agree to our use of cookies as described in the Cookies Policy. OK, I Understand
 
Top