SHARE
TWEET

Untitled

a guest Feb 17th, 2020 78 Never
Not a member of Pastebin yet? Sign Up, it unlocks many cool features!
  1. Общее
  2. Уникальный идентификатор                 : 85839790793982154415772515472285201915 (0x409424711D95E7819419F028AA6975FB)
  3. Полное имя                               : 711.Ocean.Drive.1950.BluRay.REMUX.1080p.mkv
  4. Формат                                   : Matroska
  5. Версия формата                           : Version 4
  6. Размер файла                             : 14,6 Гбайт
  7. Продолжительность                        : 1 ч. 41 м.
  8. Режим общего битрейта                    : Переменный
  9. Общий поток                              : 20,5 Мбит/сек
  10. Название фильма                          : 711.Ocean.Drive.1950.BluRay.REMUX.1080p by Koenig
  11. Дата кодирования                         : UTC 2020-02-16 14:36:09
  12. Программа кодирования                    : mkvmerge v28.2.0 ('The Awakening') 32-bit
  13. Библиотека кодирования                   : libebml v1.3.6 + libmatroska v1.4.9
  14. Обложка                                  : Yes
  15. Attachments                              : cover.jpg
  16.  
  17. Видео
  18. Идентификатор                            : 1
  19. Формат                                   : AVC
  20. Формат/Информация                        : Advanced Video Codec
  21. Профиль формата                          : High@L4.1
  22. Настройки формата                        : CABAC / 4 Ref Frames
  23. Параметр CABAC формата                   : Да
  24. Параметр RefFrames формата               : 4 кадра
  25. Идентификатор кодека                     : V_MPEG4/ISO/AVC
  26. Продолжительность                        : 1 ч. 41 м.
  27. Вид битрейта                             : Переменный
  28. Битрейт                                  : 20,0 Мбит/сек
  29. Максимальный битрейт                     : 30,0 Мбит/сек
  30. Ширина                                   : 1920 пикселей
  31. Высота                                   : 1080 пикселей
  32. Соотношение сторон                       : 16:9
  33. Режим частоты кадров                     : Постоянный
  34. Частота кадров                           : 23,976 (24000/1001) кадра/сек
  35. Стандарт вещания                         : NTSC
  36. Цветовое пространство                    : YUV
  37. Субдискретизация насыщенности            : 4:2:0
  38. Битовая глубина                          : 8 бит
  39. Тип развёртки                            : Прогрессивная
  40. Бит/(Пиксели*Кадры)                      : 0.402
  41. Размер потока                            : 14,2 Гбайт (98%)
  42. Заголовок                                : EPSiLON
  43. Язык                                     : English
  44. Default                                  : Да
  45. Forced                                   : Нет
  46. Цветовой диапазон                        : Limited
  47. Основные цвета                           : BT.709
  48. Характеристики трансфера                 : BT.709
  49. Коэффициенты матрицы                     : BT.709
  50.  
  51. Аудио #1
  52. Идентификатор                            : 2
  53. Формат                                   : AC-3
  54. Формат/Информация                        : Audio Coding 3
  55. Коммерческое название                    : Dolby Digital
  56. Идентификатор кодека                     : A_AC3
  57. Продолжительность                        : 1 ч. 41 м.
  58. Вид битрейта                             : Постоянный
  59. Битрейт                                  : 224 Кбит/сек
  60. Каналы                                   : 2 канала
  61. Channel layout                           : L R
  62. Частота                                  : 48,0 КГц
  63. Частота кадров                           : 31,250 кадров/сек (1536 SPF)
  64. Битовая глубина                          : 16 бит
  65. Метод сжатия                             : С потерями
  66. Размер потока                            : 163 Мбайт (1%)
  67. Заголовок                                : VO - Бусов
  68. Язык                                     : Russian
  69. ServiceKind/String                       : Complete Main
  70. Default                                  : Да
  71. Forced                                   : Нет
  72.  
  73. Аудио #2
  74. Идентификатор                            : 3
  75. Формат                                   : FLAC
  76. Формат/Информация                        : Free Lossless Audio Codec
  77. Идентификатор кодека                     : A_FLAC
  78. Продолжительность                        : 1 ч. 41 м.
  79. Вид битрейта                             : Переменный
  80. Битрейт                                  : 243 Кбит/сек
  81. Каналы                                   : 1 канал
  82. Channel layout                           : C
  83. Частота                                  : 48,0 КГц
  84. Частота кадров                           : 11,719 кадров/сек (4096 SPF)
  85. Битовая глубина                          : 16 бит
  86. Метод сжатия                             : Без потерь
  87. Размер потока                            : 177 Мбайт (1%)
  88. Заголовок                                : Original
  89. Библиотека кодирования                   : libFLAC 1.2.1 (UTC 2007-09-17)
  90. Язык                                     : English
  91. Default                                  : Нет
  92. Forced                                   : Нет
  93.  
  94. Текст
  95. Идентификатор                            : 4
  96. Формат                                   : PGS
  97. Режим смешивания                         : zlib
  98. Идентификатор кодека                     : S_HDMV/PGS
  99. Идентификатор кодека/Информация          : Picture based subtitle format used on BDs/HD-DVDs
  100. Продолжительность                        : 1 ч. 41 м.
  101. Битрейт                                  : 36,5 Кбит/сек
  102. ElementCount                             : 3789
  103. Размер потока                            : 26,5 Мбайт (0%)
  104. Заголовок                                : SDH
  105. Язык                                     : English
  106. Default                                  : Нет
  107. Forced                                   : Нет
  108.  
  109. Меню
  110. 00:00:00.000                             : en:Chapter 1
  111. 00:01:49.484                             : en:Chapter 2
  112. 00:14:59.148                             : en:Chapter 3
  113. 00:30:00.299                             : en:Chapter 4
  114. 00:43:49.377                             : en:Chapter 5
  115. 01:00:33.880                             : en:Chapter 6
  116. 01:16:12.943                             : en:Chapter 7
  117. 01:29:02.921                             : en:Chapter 8
  118. 01:41:46.142                             : en:Chapter 9
RAW Paste Data
We use cookies for various purposes including analytics. By continuing to use Pastebin, you agree to our use of cookies as described in the Cookies Policy. OK, I Understand
Top