SHARE
TWEET

Untitled

Interfilm Jun 16th, 2014 178 Never
Not a member of Pastebin yet? Sign Up, it unlocks many cool features!
  1. General
  2. Die.Hebamme.2014.Blu.Ray.720p.CINEMANIA.mkv
  3. Format : Matroska
  4. Format version : Version 4 / Version 2
  5. File size : 4.55 GiB
  6. Duration : 1h 54mn
  7. Overall bit rate : 5 677 Kbps
  8. Movie name : Release Group CINEMANIA
  9. Encoded date : UTC 2014-06-16 21:45:55
  10. Writing application : mkvmerge v7.0.0 ('Where We Going') 64bit built on Jun 9 2014 15:16:27
  11. Writing library : libebml v1.3.0 + libmatroska v1.4.1
  12.  
  13. Video
  14. ID : 1
  15. Format : AVC
  16. Format/Info : Advanced Video Codec
  17. Format profile : High@L4.1
  18. Format settings, CABAC : Yes
  19. Format settings, ReFrames : 4 frames
  20. Codec ID : V_MPEG4/ISO/AVC
  21. Duration : 1h 54mn
  22. Bit rate : 3 863 Kbps
  23. Width : 1 280 pixels
  24. Height : 720 pixels
  25. Display aspect ratio : 16:9
  26. Frame rate mode : Constant
  27. Frame rate : 25.000 fps
  28. Color space : YUV
  29. Chroma subsampling : 4:2:0
  30. Bit depth : 8 bits
  31. Scan type : Progressive
  32. Bits/(Pixel*Frame) : 0.168
  33. Stream size : 3.10 GiB (68%)
  34. Title : Release Group CINEMANIA
  35. Writing library : x264 core 140 r2377 1ca7bb9
  36. Encoding settings : cabac=1 / ref=5 / deblock=1:-3:-3 / analyse=0x3:0x133 / me=hex / subme=7 / psy=1 / psy_rd=1.00:0.15 / mixed_ref=0 / me_range=16 / chroma_me=1 / trellis=2 / 8x8dct=1 / cqm=0 / deadzone=21,11 / fast_pskip=1 / chroma_qp_offset=-3 / threads=12 / lookahead_threads=3 / sliced_threads=0 / nr=0 / decimate=1 / interlaced=0 / bluray_compat=0 / constrained_intra=0 / bframes=5 / b_pyramid=1 / b_adapt=2 / b_bias=0 / direct=1 / weightb=1 / open_gop=0 / weightp=1 / keyint=250 / keyint_min=25 / scenecut=40 / intra_refresh=0 / rc_lookahead=10 / rc=crf / mbtree=1 / crf=17.0 / qcomp=0.60 / qpmin=0 / qpmax=69 / qpstep=4 / ip_ratio=1.40 / aq=1:1.00
  37. Language : English
  38. Default : Yes
  39. Forced : No
  40.  
  41. Audio #1
  42. ID : 2
  43. Format : AC-3
  44. Format/Info : Audio Coding 3
  45. Mode extension : CM (complete main)
  46. Format settings, Endianness : Big
  47. Codec ID : A_AC3
  48. Duration : 1h 54mn
  49. Bit rate mode : Constant
  50. Bit rate : 192 Kbps
  51. Channel(s) : 2 channels
  52. Channel positions : Front: L R
  53. Sampling rate : 48.0 KHz
  54. Bit depth : 16 bits
  55. Compression mode : Lossy
  56. Stream size : 158 MiB (3%)
  57. Title : R.A.I.M
  58. Language : Russian
  59. Default : Yes
  60. Forced : Yes
  61.  
  62. Audio #2
  63. ID : 3
  64. Format : DTS
  65. Format/Info : Digital Theater Systems
  66. Mode : 16
  67. Format settings, Endianness : Big
  68. Codec ID : A_DTS
  69. Duration : 1h 54mn
  70. Bit rate mode : Constant
  71. Bit rate : 1 509 Kbps
  72. Channel(s) : 6 channels
  73. Channel positions : Front: L C R, Side: L R, LFE
  74. Sampling rate : 48.0 KHz
  75. Bit depth : 24 bits
  76. Compression mode : Lossy
  77. Stream size : 1.21 GiB (27%)
  78. Language : German
  79. Default : No
  80. Forced : No
  81.  
  82. Text
  83. ID : 4
  84. Format : UTF-8
  85. Codec ID : S_TEXT/UTF8
  86. Codec ID/Info : UTF-8 Plain Text
  87. Title : Карина Шестерина
  88. Language : Russian
  89. Default : No
  90. Forced : No
  91.  
  92. Menu
  93. 00:00:00.000 : en:Chapter 01
  94. 00:04:54.919 : en:Chapter 02
  95. 00:10:02.760 : en:Chapter 03
  96. 00:15:30.720 : en:Chapter 04
  97. 00:20:43.920 : en:Chapter 05
  98. 00:25:21.280 : en:Chapter 06
  99. 00:31:12.480 : en:Chapter 07
  100. 00:36:21.480 : en:Chapter 08
  101. 00:40:54.840 : en:Chapter 09
  102. 00:46:56.640 : en:Chapter 10
  103. 00:51:34.640 : en:Chapter 11
  104. 00:57:17.920 : en:Chapter 12
  105. 01:02:28.360 : en:Chapter 13
  106. 01:07:42.640 : en:Chapter 14
  107. 01:14:04.280 : en:Chapter 15
  108. 01:19:49.360 : en:Chapter 16
  109. 01:25:08.840 : en:Chapter 17
  110. 01:30:07.880 : en:Chapter 18
  111. 01:35:12.920 : en:Chapter 19
  112. 01:40:42.200 : en:Chapter 20
  113. 01:45:29.400 : en:Chapter 21
  114. 01:49:51.360 : en:Chapter 22
  115. 01:53:49.800 : en:Chapter 23
  116. 01:54:51.000 : en:Chapter 24
RAW Paste Data
We use cookies for various purposes including analytics. By continuing to use Pastebin, you agree to our use of cookies as described in the Cookies Policy. OK, I Understand
 
Top