Guest User

The.Thomas.Crown.Affair.1999.1080p.BluRay.x264.DTS-WiKi

a guest
May 11th, 2019
17
Never
Not a member of Pastebin yet? Sign Up, it unlocks many cool features!
  1. General
  2. Complete name                            : The.Thomas.Crown.Affair.1999.1080p.BluRay.x264.DTS-WiKi.mkv
  3. Format                                   : Matroska
  4. Format version                           : Version 1
  5. File size                                : 11.9 GiB
  6. Duration                                 : 1 h 53 min
  7. Overall bit rate                         : 15.1 Mb/s
  8. Encoded date                             : UTC 2016-02-19 02:13:25
  9. Writing application                      : mkvmerge v2.2.0 ('Turn It On Again') built on Mar  4 2008 13:20:25
  10. Writing library                          : libebml v0.7.7 + libmatroska v0.8.1
  11. Attachments                              : MSYH.TTF / MSYHBD.TTF / tahoma.ttf
  12.  
  13. Video
  14. ID                                       : 1
  15. Format                                   : AVC
  16. Format/Info                              : Advanced Video Codec
  17. Format profile                           : High@L4.1
  18. Format settings                          : CABAC / 5 Ref Frames
  19. Format settings, CABAC                   : Yes
  20. Format settings, Reference frames        : 5 frames
  21. Codec ID                                 : V_MPEG4/ISO/AVC
  22. Duration                                 : 1 h 53 min
  23. Bit rate                                 : 12.0 Mb/s
  24. Width                                    : 1 920 pixels
  25. Height                                   : 812 pixels
  26. Display aspect ratio                     : 2.35:1
  27. Frame rate mode                          : Constant
  28. Frame rate                               : 23.976 (24000/1001) FPS
  29. Color space                              : YUV
  30. Chroma subsampling                       : 4:2:0
  31. Bit depth                                : 8 bits
  32. Scan type                                : Progressive
  33. Bits/(Pixel*Frame)                       : 0.321
  34. Stream size                              : 9.29 GiB (78%)
  35. Writing library                          : x264 core 130 r2273 b3065e6
  36. Encoding settings                        : cabac=1 / ref=5 / deblock=1:-3:-3 / analyse=0x3:0x113 / me=umh / subme=11 / psy=1 / psy_rd=1.00:0.10 / mixed_ref=1 / me_range=32 / chroma_me=1 / trellis=2 / 8x8dct=1 / cqm=0 / deadzone=21,11 / fast_pskip=0 / chroma_qp_offset=-5 / threads=12 / lookahead_threads=2 / sliced_threads=0 / nr=0 / decimate=0 / interlaced=0 / bluray_compat=0 / constrained_intra=0 / bframes=8 / b_pyramid=2 / b_adapt=2 / b_bias=0 / direct=3 / weightb=1 / open_gop=0 / weightp=2 / keyint=250 / keyint_min=23 / scenecut=40 / intra_refresh=0 / rc_lookahead=90 / rc=2pass / mbtree=1 / bitrate=12000 / ratetol=1.0 / qcomp=0.60 / qpmin=0 / qpmax=69 / qpstep=4 / cplxblur=20.0 / qblur=0.5 / ip_ratio=1.40 / aq=1:0.80
  37. Language                                 : English
  38. Default                                  : Yes
  39. Forced                                   : No
  40.  
  41. Audio #1
  42. ID                                       : 2
  43. Format                                   : DTS
  44. Format/Info                              : Digital Theater Systems
  45. Codec ID                                 : A_DTS
  46. Duration                                 : 1 h 53 min
  47. Bit rate mode                            : Constant
  48. Bit rate                                 : 1 509 kb/s
  49. Channel(s)                               : 6 channels
  50. Channel layout                           : C L R Ls Rs LFE
  51. Sampling rate                            : 48.0 kHz
  52. Frame rate                               : 93.750 FPS (512 SPF)
  53. Bit depth                                : 24 bits
  54. Compression mode                         : Lossy
  55. Stream size                              : 1.19 GiB (10%)
  56. Title                                    : 英语
  57. Language                                 : English
  58. Default                                  : Yes
  59. Forced                                   : No
  60.  
  61. Audio #2
  62. ID                                       : 3
  63. Format                                   : DTS
  64. Format/Info                              : Digital Theater Systems
  65. Codec ID                                 : A_DTS
  66. Duration                                 : 1 h 53 min
  67. Bit rate mode                            : Constant
  68. Bit rate                                 : 1 509 kb/s
  69. Channel(s)                               : 6 channels
  70. Channel layout                           : C L R Ls Rs LFE
  71. Sampling rate                            : 48.0 kHz
  72. Frame rate                               : 93.750 FPS (512 SPF)
  73. Bit depth                                : 24 bits
  74. Compression mode                         : Lossy
  75. Stream size                              : 1.19 GiB (10%)
  76. Title                                    : 国语
  77. Language                                 : Chinese
  78. Default                                  : No
  79. Forced                                   : No
  80.  
  81. Text
  82. ID                                       : 4
  83. Format                                   : ASS
  84. Codec ID                                 : S_TEXT/ASS
  85. Codec ID/Info                            : Advanced Sub Station Alpha
  86. Compression mode                         : Lossless
  87. Title                                    : chs&eng
  88. Language                                 : Chinese
  89. Default                                  : Yes
  90. Forced                                   : No
  91.  
  92.  
  93. General
  94. Complete name                            : The.Thomas.Crown.Affair.1999.1080p.BluRay.x264.DTS-WiKi.mkv
  95. Format                                   : Matroska
  96. Format version                           : Version 1
  97. File size                                : 11.9 GiB
  98. Duration                                 : 1 h 53 min
  99. Overall bit rate                         : 15.1 Mb/s
  100. Encoded date                             : UTC 2016-02-19 02:13:25
  101. Writing application                      : mkvmerge v2.2.0 ('Turn It On Again') built on Mar  4 2008 13:20:25
  102. Writing library                          : libebml v0.7.7 + libmatroska v0.8.1
  103. Attachments                              : MSYH.TTF / MSYHBD.TTF / tahoma.ttf
  104.  
  105. Video
  106. ID                                       : 1
  107. Format                                   : AVC
  108. Format/Info                              : Advanced Video Codec
  109. Format profile                           : High@L4.1
  110. Format settings                          : CABAC / 5 Ref Frames
  111. Format settings, CABAC                   : Yes
  112. Format settings, Reference frames        : 5 frames
  113. Codec ID                                 : V_MPEG4/ISO/AVC
  114. Duration                                 : 1 h 53 min
  115. Bit rate                                 : 12.0 Mb/s
  116. Width                                    : 1 920 pixels
  117. Height                                   : 812 pixels
  118. Display aspect ratio                     : 2.35:1
  119. Frame rate mode                          : Constant
  120. Frame rate                               : 23.976 (24000/1001) FPS
  121. Color space                              : YUV
  122. Chroma subsampling                       : 4:2:0
  123. Bit depth                                : 8 bits
  124. Scan type                                : Progressive
  125. Bits/(Pixel*Frame)                       : 0.321
  126. Stream size                              : 9.29 GiB (78%)
  127. Writing library                          : x264 core 130 r2273 b3065e6
  128. Encoding settings                        : cabac=1 / ref=5 / deblock=1:-3:-3 / analyse=0x3:0x113 / me=umh / subme=11 / psy=1 / psy_rd=1.00:0.10 / mixed_ref=1 / me_range=32 / chroma_me=1 / trellis=2 / 8x8dct=1 / cqm=0 / deadzone=21,11 / fast_pskip=0 / chroma_qp_offset=-5 / threads=12 / lookahead_threads=2 / sliced_threads=0 / nr=0 / decimate=0 / interlaced=0 / bluray_compat=0 / constrained_intra=0 / bframes=8 / b_pyramid=2 / b_adapt=2 / b_bias=0 / direct=3 / weightb=1 / open_gop=0 / weightp=2 / keyint=250 / keyint_min=23 / scenecut=40 / intra_refresh=0 / rc_lookahead=90 / rc=2pass / mbtree=1 / bitrate=12000 / ratetol=1.0 / qcomp=0.60 / qpmin=0 / qpmax=69 / qpstep=4 / cplxblur=20.0 / qblur=0.5 / ip_ratio=1.40 / aq=1:0.80
  129. Language                                 : English
  130. Default                                  : Yes
  131. Forced                                   : No
  132.  
  133. Audio #1
  134. ID                                       : 2
  135. Format                                   : DTS
  136. Format/Info                              : Digital Theater Systems
  137. Codec ID                                 : A_DTS
  138. Duration                                 : 1 h 53 min
  139. Bit rate mode                            : Constant
  140. Bit rate                                 : 1 509 kb/s
  141. Channel(s)                               : 6 channels
  142. Channel layout                           : C L R Ls Rs LFE
  143. Sampling rate                            : 48.0 kHz
  144. Frame rate                               : 93.750 FPS (512 SPF)
  145. Bit depth                                : 24 bits
  146. Compression mode                         : Lossy
  147. Stream size                              : 1.19 GiB (10%)
  148. Title                                    : 英语
  149. Language                                 : English
  150. Default                                  : Yes
  151. Forced                                   : No
  152.  
  153. Audio #2
  154. ID                                       : 3
  155. Format                                   : DTS
  156. Format/Info                              : Digital Theater Systems
  157. Codec ID                                 : A_DTS
  158. Duration                                 : 1 h 53 min
  159. Bit rate mode                            : Constant
  160. Bit rate                                 : 1 509 kb/s
  161. Channel(s)                               : 6 channels
  162. Channel layout                           : C L R Ls Rs LFE
  163. Sampling rate                            : 48.0 kHz
  164. Frame rate                               : 93.750 FPS (512 SPF)
  165. Bit depth                                : 24 bits
  166. Compression mode                         : Lossy
  167. Stream size                              : 1.19 GiB (10%)
  168. Title                                    : 国语
  169. Language                                 : Chinese
  170. Default                                  : No
  171. Forced                                   : No
  172.  
  173. Text
  174. ID                                       : 4
  175. Format                                   : ASS
  176. Codec ID                                 : S_TEXT/ASS
  177. Codec ID/Info                            : Advanced Sub Station Alpha
  178. Compression mode                         : Lossless
  179. Title                                    : chs&eng
  180. Language                                 : Chinese
  181. Default                                  : Yes
  182. Forced                                   : No
RAW Paste Data