Guest User

pb

a guest
Jun 14th, 2016
62
Never
Not a member of Pastebin yet? Sign Up, it unlocks many cool features!
  1. http://192.168.1.130:8096/emby/videos/8ca906e358ed7d5119c6a495899dfd6b/hls1/main/0.ts?DeviceId=AwBuswUA3D8FAPjVBgABAAQAPOwBANzIAgB0AwkAskc&MediaSourceId=8ca906e358ed7d5119c6a495899dfd6b&VideoCodec=h264&AudioCodec=ac3&AudioStreamIndex=1&VideoBitrate=39680000&AudioBitrate=320000&MaxAudioChannels=6&Level=51&MaxVideoBitDepth=8&Profile=high&PlaySessionId=e362e901abd341f5a8edc792c92eeb09&api_key=52f9769d7c294cda84608088c57aac5a
  2.  
  3. {"Protocol":"File","Id":"8ca906e358ed7d5119c6a495899dfd6b","Path":"E:\\Movies\\The Next Three Days (2010)\\The Next Three Days (2010).mkv","Type":"Default","Container":"mkv","Name":"1080P/H264/DTS","RunTimeTicks":79881050000,"ReadAtNativeFramerate":false,"SupportsTranscoding":true,"SupportsDirectStream":true,"SupportsDirectPlay":true,"RequiresOpening":false,"RequiresClosing":false,"VideoType":"VideoFile","MediaStreams":[{"Codec":"h264","IsInterlaced":false,"BitRate":13494556,"BitDepth":8,"RefFrames":3,"IsDefault":true,"IsForced":false,"Height":816,"Width":1920,"AverageFrameRate":23.97602,"RealFrameRate":23.97602,"Profile":"High","Type":"Video","AspectRatio":"2.35:1","Index":0,"IsExternal":false,"IsTextSubtitleStream":false,"SupportsExternalStream":false,"PixelFormat":"yuv420p","Level":41,"IsAnamorphic":false},{"Codec":"dca","Language":"eng","DisplayTitle":"Eng DTS 5.1 (D)","IsInterlaced":false,"ChannelLayout":"5.1","BitRate":1536000,"Channels":6,"SampleRate":48000,"IsDefault":true,"IsForced":false,"Profile":"DTS","Type":"Audio","Index":1,"IsExternal":false,"IsTextSubtitleStream":false,"SupportsExternalStream":false,"Level":0}],"PlayableStreamFileNames":[],"Formats":[],"Bitrate":13494556,"RequiredHttpHeaders":{}}
  4.  
  5. C:\Users\rickg\AppData\Roaming\Emby-Server\ffmpeg\20160410\ffmpeg.exe -i file:"E:\Movies\The Next Three Days (2010)\The Next Three Days (2010).mkv" -map_metadata -1 -threads 0 -map 0:0 -map 0:1 -map -0:s -codec:v:0 copy -bsf:v h264_mp4toannexb -flags -global_header -copyts -codec:a:0 ac3 -ac 6 -ab 320000 -af "adelay=1,aresample=async=1" -max_delay 5000000 -avoid_negative_ts disabled -start_at_zero -hls_time 10 -start_number 0 -hls_list_size 0 -y "C:\Users\rickg\AppData\Roaming\Emby-Server\transcoding-temp\96a6951d07d80da0fd20c43b69771d1d.m3u8"
  6.  
  7.  
  8. ffmpeg version N-79277-g0c90b2e Copyright (c) 2000-2016 the FFmpeg developers
  9. built with gcc 5.3.0 (GCC)
  10. configuration: --enable-gpl --enable-version3 --disable-w32threads --enable-avisynth --enable-bzlib --enable-fontconfig --enable-frei0r --enable-gnutls --enable-iconv --enable-libass --enable-libbluray --enable-libbs2b --enable-libcaca --enable-libfreetype --enable-libgme --enable-libgsm --enable-libilbc --enable-libmodplug --enable-libmfx --enable-libmp3lame --enable-libopencore-amrnb --enable-libopencore-amrwb --enable-libopenjpeg --enable-libopus --enable-librtmp --enable-libschroedinger --enable-libsnappy --enable-libsoxr --enable-libspeex --enable-libtheora --enable-libtwolame --enable-libvidstab --enable-libvo-amrwbenc --enable-libvorbis --enable-libvpx --enable-libwavpack --enable-libwebp --enable-libx264 --enable-libx265 --enable-libxavs --enable-libxvid --enable-libzimg --enable-lzma --enable-decklink --enable-zlib
  11. libavutil 55. 20.100 / 55. 20.100
  12. libavcodec 57. 34.100 / 57. 34.100
  13. libavformat 57. 32.100 / 57. 32.100
  14. libavdevice 57. 0.101 / 57. 0.101
  15. libavfilter 6. 41.100 / 6. 41.100
  16. libswscale 4. 1.100 / 4. 1.100
  17. libswresample 2. 0.101 / 2. 0.101
  18. libpostproc 54. 0.100 / 54. 0.100
  19. Input #0, matroska,webm, from 'file:E:\Movies\The Next Three Days (2010)\The Next Three Days (2010).mkv':
  20. Metadata:
  21. encoder : libebml v1.3.1 + libmatroska v1.4.2
  22. creation_time : 2015-04-07 13:30:12
  23. Duration: 02:13:08.11, start: 0.000000, bitrate: 13494 kb/s
  24. Chapter #0:0: start 0.000000, end 814.438000
  25. Metadata:
  26. title : (01)00:00:00:000
  27. Chapter #0:1: start 814.438000, end 1448.572000
  28. Metadata:
  29. title : (02)00:13:34:438
  30. Chapter #0:2: start 1448.572000, end 2071.360000
  31. Metadata:
  32. title : (03)00:24:08:572
  33. Chapter #0:3: start 2071.360000, end 2392.348000
  34. Metadata:
  35. title : (04)00:34:31:360
  36. Chapter #0:4: start 2392.348000, end 2666.580000
  37. Metadata:
  38. title : (05)00:39:52:348
  39. Chapter #0:5: start 2666.580000, end 3239.861000
  40. Metadata:
  41. title : (06)00:44:26:580
  42. Chapter #0:6: start 3239.861000, end 3473.803000
  43. Metadata:
  44. title : (07)00:53:59:861
  45. Chapter #0:7: start 3473.803000, end 3826.948000
  46. Metadata:
  47. title : (08)00:57:53:803
  48. Chapter #0:8: start 3826.948000, end 4042.371000
  49. Metadata:
  50. title : (09)01:03:46:948
  51. Chapter #0:9: start 4042.371000, end 4752.164000
  52. Metadata:
  53. title : (10)01:07:22:371
  54. Chapter #0:10: start 4752.164000, end 5319.522000
  55. Metadata:
  56. title : (11)01:19:12:164
  57. Chapter #0:11: start 5319.522000, end 5669.747000
  58. Metadata:
  59. title : (12)01:28:39:522
  60. Chapter #0:12: start 5669.747000, end 6359.895000
  61. Metadata:
  62. title : (13)01:34:29:747
  63. Chapter #0:13: start 6359.895000, end 6711.663000
  64. Metadata:
  65. title : (14)01:45:59:895
  66. Chapter #0:14: start 6711.663000, end 7138.256000
  67. Metadata:
  68. title : (15)01:51:51:663
  69. Chapter #0:15: start 7138.256000, end 7988.105000
  70. Metadata:
  71. title : (16)01:58:58:256
  72. Chapter #0:16: start 7988.563000, end 7988.105000
  73. Metadata:
  74. title : (17)02:13:08:563
  75. Stream #0:0: Video: h264 (High), yuv420p(tv, bt709), 1920x816, SAR 1:1 DAR 40:17, 23.98 fps, 23.98 tbr, 1k tbn, 47.95 tbc (default)
  76. Metadata:
  77. BPS : 11982889
  78. BPS-eng : 11982889
  79. DURATION : 02:13:08.105000000
  80. DURATION-eng : 02:13:08.105000000
  81. NUMBER_OF_FRAMES: 191523
  82. NUMBER_OF_FRAMES-eng: 191523
  83. NUMBER_OF_BYTES : 11965072673
  84. NUMBER_OF_BYTES-eng: 11965072673
  85. _STATISTICS_WRITING_APP: mkvmerge v7.8.0 ('River Man') 64bit built on Mar 27 2015 16:31:37
  86. _STATISTICS_WRITING_APP-eng: mkvmerge v7.8.0 ('River Man') 64bit built on Mar 27 2015 16:31:37
  87. _STATISTICS_WRITING_DATE_UTC: 2015-04-07 13:30:12
  88. _STATISTICS_WRITING_DATE_UTC-eng: 2015-04-07 13:30:12
  89. _STATISTICS_TAGS: BPS DURATION NUMBER_OF_FRAMES NUMBER_OF_BYTES
  90. _STATISTICS_TAGS-eng: BPS DURATION NUMBER_OF_FRAMES NUMBER_OF_BYTES
  91. Stream #0:1(eng): Audio: dts (DTS), 48000 Hz, 5.1(side), fltp, 1536 kb/s (default)
  92. Metadata:
  93. BPS : 1509003
  94. BPS-eng : 1509003
  95. DURATION : 02:13:08.043000000
  96. DURATION-eng : 02:13:08.043000000
  97. NUMBER_OF_FRAMES: 748881
  98. NUMBER_OF_FRAMES-eng: 748881
  99. NUMBER_OF_BYTES : 1506748572
  100. NUMBER_OF_BYTES-eng: 1506748572
  101. _STATISTICS_WRITING_APP: mkvmerge v7.8.0 ('River Man') 64bit built on Mar 27 2015 16:31:37
  102. _STATISTICS_WRITING_APP-eng: mkvmerge v7.8.0 ('River Man') 64bit built on Mar 27 2015 16:31:37
  103. _STATISTICS_WRITING_DATE_UTC: 2015-04-07 13:30:12
  104. _STATISTICS_WRITING_DATE_UTC-eng: 2015-04-07 13:30:12
  105. _STATISTICS_TAGS: BPS DURATION NUMBER_OF_FRAMES NUMBER_OF_BYTES
  106. _STATISTICS_TAGS-eng: BPS DURATION NUMBER_OF_FRAMES NUMBER_OF_BYTES
  107. Output #0, hls, to 'C:\Users\rickg\AppData\Roaming\Emby-Server\transcoding-temp\96a6951d07d80da0fd20c43b69771d1d.m3u8':
  108. Metadata:
  109. encoder : Lavf57.32.100
  110. Chapter #0:0: start 0.000000, end 814.438000
  111. Chapter #0:1: start 814.438000, end 1448.572000
  112. Chapter #0:2: start 1448.572000, end 2071.360000
  113. Chapter #0:3: start 2071.360000, end 2392.348000
  114. Chapter #0:4: start 2392.348000, end 2666.580000
  115. Chapter #0:5: start 2666.580000, end 3239.861000
  116. Chapter #0:6: start 3239.861000, end 3473.803000
  117. Chapter #0:7: start 3473.803000, end 3826.948000
  118. Chapter #0:8: start 3826.948000, end 4042.371000
  119. Chapter #0:9: start 4042.371000, end 4752.164000
  120. Chapter #0:10: start 4752.164000, end 5319.522000
  121. Chapter #0:11: start 5319.522000, end 5669.747000
  122. Chapter #0:12: start 5669.747000, end 6359.895000
  123. Chapter #0:13: start 6359.895000, end 6711.663000
  124. Chapter #0:14: start 6711.663000, end 7138.256000
  125. Chapter #0:15: start 7138.256000, end 7988.105000
  126. Chapter #0:16: start 7988.563000, end 7988.105000
  127. Stream #0:0: Video: h264, yuv420p, 1920x816 [SAR 1:1 DAR 40:17], q=2-31, 23.98 fps, 23.98 tbr, 90k tbn, 23.98 tbc (default)
  128. Stream #0:1: Audio: ac3, 48000 Hz, 5.1, fltp, 320 kb/s (default)
  129. Metadata:
  130. encoder : Lavc57.34.100 ac3
  131. Stream mapping:
  132. Stream #0:0 -> #0:0 (copy)
  133. Stream #0:1 -> #0:1 (dts (dca) -> ac3 (native))
  134. Press [q] to stop, [?] for help
  135. frame= 71 fps=0.0 q=-1.0 size=N/A time=00:00:02.93 bitrate=N/A speed=3.32x
  136. frame= 600 fps=433 q=-1.0 size=N/A time=00:00:25.01 bitrate=N/A speed= 18x
  137. frame= 1413 fps=748 q=-1.0 size=N/A time=00:00:58.90 bitrate=N/A speed=31.2x
  138. frame= 2334 fps=977 q=-1.0 size=N/A time=00:01:37.33 bitrate=N/A speed=40.7x
  139. frame= 3164 fps=1095 q=-1.0 size=N/A time=00:02:11.99 bitrate=N/A speed=45.7x
  140. frame= 4010 fps=1183 q=-1.0 size=N/A time=00:02:47.20 bitrate=N/A speed=49.3x
  141. frame= 4805 fps=1235 q=-1.0 size=N/A time=00:03:20.44 bitrate=N/A speed=51.5x
  142. frame= 5680 fps=1291 q=-1.0 size=N/A time=00:03:56.92 bitrate=N/A speed=53.9x
  143. frame= 6447 fps=1316 q=-1.0 size=N/A time=00:04:28.85 bitrate=N/A speed=54.9x
  144. frame= 7169 fps=1328 q=-1.0 size=N/A time=00:04:58.97 bitrate=N/A speed=55.4x
  145. frame= 7936 fps=1345 q=-1.0 size=N/A time=00:05:31.00 bitrate=N/A speed=56.1x
  146. frame= 8573 fps=1338 q=-1.0 size=N/A time=00:05:57.56 bitrate=N/A speed=55.8x
  147. frame= 9318 fps=1349 q=-1.0 size=N/A time=00:06:28.60 bitrate=N/A speed=56.2x
  148. frame=10074 fps=1360 q=-1.0 size=N/A time=00:07:00.15 bitrate=N/A speed=56.7x
  149. frame=10896 fps=1378 q=-1.0 size=N/A time=00:07:34.45 bitrate=N/A speed=57.5x
  150. frame=11789 fps=1400 q=-1.0 size=N/A time=00:08:11.67 bitrate=N/A speed=58.4x
  151. frame=12568 fps=1409 q=-1.0 size=N/A time=00:08:44.18 bitrate=N/A speed=58.8x
  152. frame=13315 fps=1414 q=-1.0 size=N/A time=00:09:15.41 bitrate=N/A speed= 59x
  153. frame=14123 fps=1424 q=-1.0 size=N/A time=00:09:49.08 bitrate=N/A speed=59.4x
  154. frame=14895 fps=1430 q=-1.0 size=N/A time=00:10:21.21 bitrate=N/A speed=59.6x
  155. frame=15664 fps=1435 q=-1.0 size=N/A time=00:10:53.27 bitrate=N/A speed=59.8x
  156. frame=15952 fps=1329 q=-1.0 size=N/A time=00:11:05.30 bitrate=N/A speed=55.4x
  157. frame=16712 fps=1336 q=-1.0 size=N/A time=00:11:36.98 bitrate=N/A speed=55.7x
  158. frame=17478 fps=1344 q=-1.0 size=N/A time=00:12:09.08 bitrate=N/A speed=56.1x
  159. frame=18168 fps=1344 q=-1.0 size=N/A time=00:12:37.81 bitrate=N/A speed=56.1x
  160. frame=18938 fps=1351 q=-1.0 size=N/A time=00:13:09.94 bitrate=N/A speed=56.4x
  161. frame=19729 fps=1358 q=-1.0 size=N/A time=00:13:42.87 bitrate=N/A speed=56.6x
  162. frame=20457 fps=1361 q=-1.0 size=N/A time=00:14:13.21 bitrate=N/A speed=56.8x
  163. frame=21281 fps=1370 q=-1.0 size=N/A time=00:14:47.67 bitrate=N/A speed=57.1x
  164. frame=21891 fps=1365 q=-1.0 size=N/A time=00:15:13.01 bitrate=N/A speed=56.9x
  165. frame=22620 fps=1368 q=-1.0 size=N/A time=00:15:43.48 bitrate=N/A speed= 57x
  166. frame=23458 fps=1377 q=-1.0 size=N/A time=00:16:18.42 bitrate=N/A speed=57.4x
  167. frame=24259 fps=1382 q=-1.0 size=N/A time=00:16:51.83 bitrate=N/A speed=57.7x
  168. frame=25104 fps=1391 q=-1.0 size=N/A time=00:17:27.06 bitrate=N/A speed= 58x
  169. frame=25941 fps=1399 q=-1.0 size=N/A time=00:18:01.94 bitrate=N/A speed=58.3x
  170. frame=26687 fps=1400 q=-1.0 size=N/A time=00:18:33.11 bitrate=N/A speed=58.4x
  171. frame=27537 fps=1408 q=-1.0 size=N/A time=00:19:08.50 bitrate=N/A speed=58.7x
  172. frame=28266 fps=1409 q=-1.0 size=N/A time=00:19:38.90 bitrate=N/A speed=58.8x
  173. frame=28952 fps=1408 q=-1.0 size=N/A time=00:20:07.51 bitrate=N/A speed=58.7x
  174. frame=29743 fps=1412 q=-1.0 size=N/A time=00:20:40.60 bitrate=N/A speed=58.9x
  175. frame=30482 fps=1414 q=-1.0 size=N/A time=00:21:11.45 bitrate=N/A speed= 59x
  176. frame=31239 fps=1416 q=-1.0 size=N/A time=00:21:42.88 bitrate=N/A speed=59.1x
  177. frame=32096 fps=1422 q=-1.0 size=N/A time=00:22:18.68 bitrate=N/A speed=59.3x
  178. frame=32156 fps=1423 q=-1.0 Lsize=N/A time=00:22:21.17 bitrate=N/A speed=59.3x
  179. video:1954196kB audio:52390kB subtitle:0kB other streams:0kB global headers:0kB muxing overhead: unknown
RAW Paste Data