Henry_Kr

JLAW-2020

May 15th, 2020
54
Never
Not a member of Pastebin yet? Sign Up, it unlocks many cool features!
  1. Video
  2. ID : 1
  3. Format : AVC
  4. Format/Info : Advanced Video Codec
  5. Format profile : High@L4
  6. Format settings : CABAC / 2 Ref Frames
  7. Format settings, CABAC : Yes
  8. Format settings, Reference : 2 frames
  9. Muxing mode : Header stripping
  10. Codec ID : V_MPEG4/ISO/AVC
  11. Duration : 1 h 30 min
  12. Bit rate : 4 386 kb/s
  13. Width : 1 920 pixels
  14. Height : 1 080 pixels
  15. Display aspect ratio : 16:9
  16. Frame rate mode : Constant
  17. Frame rate : 23.976 (24000/1001) FPS
  18. Color space : YUV
  19. Chroma subsampling : 4:2:0
  20. Bit depth : 8 bits
  21. Scan type : Progressive
  22. Bits/(Pixel*Frame) : 0.088
  23. Stream size : 2.76 GiB (83%)
  24. Title : Justice.League.Dark.Apokolips.War.2020.1080p.WEB-DL.[CartoonNOW]
  25. Writing library : x264 core 155 r2901 7d0ff22
  26. Language : English
  27. Default : Yes
  28. Forced : No
  29. Color range : Limited
  30. Color primaries : BT.709
  31. Transfer characteristics : BT.709
  32. Matrix coefficients : BT.709
  33. Statistics Tags Issue : mkvmerge v25.0.0 ('Prog Noir') 32-bit 2020-05-04 22:38:36 / mkvmerge v5.8.0 ('No Sleep / Pillow') built on Sep 2 2012 15:37:04 2020-05-15 14:56:37
  34. FromStats_BitRate : 4490121
  35. FromStats_Duration : 01:30:07.444000000
  36. FromStats_FrameCount : 129649
  37. FromStats_StreamSize : 3035010394
  38.  
  39. Audio #1
  40. ID : 2
  41. Format : E-AC-3
  42. Format/Info : Enhanced AC-3
  43. Commercial name : Dolby Digital Plus
  44. Muxing mode : Header stripping
  45. Codec ID : A_EAC3
  46. Duration : 1 h 30 min
  47. Bit rate mode : Constant
  48. Bit rate : 384 kb/s
  49. Channel(s) : 6 channels
  50. Channel layout : L R C LFE Ls Rs
  51. Sampling rate : 48.0 kHz
  52. Frame rate : 31.250 FPS (1536 SPF)
  53. Compression mode : Lossy
  54. Stream size : 248 MiB (7%)
  55. Title : E-AC3 5.1
  56. Language : Portuguese
  57. Service kind : Complete Main
  58. Default : Yes
  59. Forced : No
  60.  
  61. Audio #2
  62. ID : 3
  63. Format : AC-3
  64. Format/Info : Audio Coding 3
  65. Commercial name : Dolby Digital
  66. Muxing mode : Header stripping
  67. Codec ID : A_AC3
  68. Duration : 1 h 30 min
  69. Bit rate mode : Constant
  70. Bit rate : 384 kb/s
  71. Channel(s) : 6 channels
  72. Channel layout : L R C LFE Ls Rs
  73. Sampling rate : 48.0 kHz
  74. Frame rate : 31.250 FPS (1536 SPF)
  75. Compression mode : Lossy
  76. Stream size : 248 MiB (7%)
  77. Title : AC3 5.1
  78. Language : English
  79. Service kind : Complete Main
  80. Default : No
  81. Forced : No
  82. Statistics Tags Issue : mkvmerge v25.0.0 ('Prog Noir') 32-bit 2020-05-04 22:38:36 / mkvmerge v5.8.0 ('No Sleep / Pillow') built on Sep 2 2012 15:37:04 2020-05-15 14:56:37
  83. FromStats_BitRate : 384000
  84. FromStats_Duration : 01:30:07.520000000
  85. FromStats_FrameCount : 168985
  86. FromStats_StreamSize : 259560960
  87.  
  88. Text
  89. ID : 4
  90. Format : UTF-8
  91. Codec ID : S_TEXT/UTF8
  92. Codec ID/Info : UTF-8 Plain Text
  93. Title : Completa
  94. Language : Portuguese
  95. Default : No
  96. Forced : No
RAW Paste Data