GrabHD

Untitled

Feb 21st, 2020
125
Never
Not a member of Pastebin yet? Sign Up, it unlocks many cool features!
  1. General
  2. Unique ID : 161208209687623673116786542473257290913 (0x7947926392617AE9ADDB11F812320CA1)
  3. Complete name : C:KINODark.Waters.2019.BDRemux.1080p.by Silverok.mkv
  4. Format : Matroska
  5. Format version : Version 4
  6. File size : 35.0 GiB
  7. Duration : 2 h 7 min
  8. Overall bit rate mode : Variable
  9. Overall bit rate : 39.5 Mb/s
  10. Movie name : Dark.Waters.2019.BDRemux.1080p.by Silverok
  11. Encoded date : UTC 2020-02-21 16:39:59
  12. Writing application : mkvmerge v43.0.0 ('The Quartermaster') 64-bit
  13. Writing library : libebml v1.3.10 + libmatroska v1.5.2
  14. Cover : Yes
  15. Attachments : cover.png
  16.  
  17. Video
  18. ID : 1
  19. Format : AVC
  20. Format/Info : Advanced Video Codec
  21. Format profile : High@L4.1
  22. Format settings : CABAC / 4 Ref Frames
  23. Format settings, CABAC : Yes
  24. Format settings, Reference frames : 4 frames
  25. Format settings, GOP : M=3, N=12
  26. Codec ID : V_MPEG4/ISO/AVC
  27. Duration : 2 h 7 min
  28. Bit rate mode : Variable
  29. Bit rate : 35.9 Mb/s
  30. Maximum bit rate : 40.0 Mb/s
  31. Width : 1 920 pixels
  32. Height : 1 080 pixels
  33. Display aspect ratio : 16:9
  34. Frame rate mode : Constant
  35. Frame rate : 23.976 (24000/1001) FPS
  36. Color space : YUV
  37. Chroma subsampling : 4:2:0
  38. Bit depth : 8 bits
  39. Scan type : Progressive
  40. Bits/(Pixel*Frame) : 0.722
  41. Stream size : 31.9 GiB (91%)
  42. Title : BDRemux.1080p.by Silverok
  43. Default : Yes
  44. Forced : No
  45.  
  46. Audio #1
  47. ID : 2
  48. Format : AC-3
  49. Format/Info : Audio Coding 3
  50. Commercial name : Dolby Digital
  51. Codec ID : A_AC3
  52. Duration : 2 h 7 min
  53. Bit rate mode : Constant
  54. Bit rate : 448 kb/s
  55. Channel(s) : 6 channels
  56. Channel layout : L R C LFE Ls Rs
  57. Sampling rate : 48.0 kHz
  58. Frame rate : 31.250 FPS (1536 SPF)
  59. Compression mode : Lossy
  60. Stream size : 407 MiB (1%)
  61. Title : Многоголосый, закадровый, HDrezka Studio
  62. Language : Russian
  63. Service kind : Complete Main
  64. Default : Yes
  65. Forced : No
  66.  
  67. Audio #2
  68. ID : 3
  69. Format : DTS XLL
  70. Format/Info : Digital Theater Systems
  71. Commercial name : DTS-HD Master Audio
  72. Codec ID : A_DTS
  73. Duration : 2 h 7 min
  74. Bit rate mode : Variable
  75. Bit rate : 3 117 kb/s
  76. Channel(s) : 6 channels
  77. Channel layout : C L R Ls Rs LFE
  78. Sampling rate : 48.0 kHz
  79. Frame rate : 93.750 FPS (512 SPF)
  80. Bit depth : 24 bits
  81. Compression mode : Lossless
  82. Stream size : 2.77 GiB (8%)
  83. Language : English
  84. Default : No
  85. Forced : No
  86.  
  87. Text #1
  88. ID : 4
  89. Format : UTF-8
  90. Codec ID : S_TEXT/UTF8
  91. Codec ID/Info : UTF-8 Plain Text
  92. Duration : 2 h 0 min
  93. Bit rate : 3 b/s
  94. Count of elements : 39
  95. Stream size : 2.88 KiB (0%)
  96. Title : Forced
  97. Language : Russian
  98. Default : Yes
  99. Forced : No
  100.  
  101. Text #2
  102. ID : 5
  103. Format : UTF-8
  104. Codec ID : S_TEXT/UTF8
  105. Codec ID/Info : UTF-8 Plain Text
  106. Duration : 1 h 59 min
  107. Bit rate : 67 b/s
  108. Count of elements : 1681
  109. Stream size : 58.9 KiB (0%)
  110. Title : Full
  111. Language : English
  112. Default : No
  113. Forced : No
  114.  
  115. Text #3
  116. ID : 6
  117. Format : UTF-8
  118. Codec ID : S_TEXT/UTF8
  119. Codec ID/Info : UTF-8 Plain Text
  120. Duration : 2 h 1 min
  121. Bit rate : 70 b/s
  122. Count of elements : 1781
  123. Stream size : 62.7 KiB (0%)
  124. Title : SDH
  125. Language : English
  126. Default : No
  127. Forced : No
  128.  
  129. Menu
  130. 00:00:00.000 : en:Глава 01
  131. 00:10:08.191 : en:Глава 02
  132. 00:18:18.431 : en:Глава 03
  133. 00:28:20.449 : en:Глава 04
  134. 00:36:48.957 : en:Глава 05
  135. 00:44:45.892 : en:Глава 06
  136. 00:50:17.056 : en:Глава 07
  137. 01:04:17.395 : en:Глава 08
  138. 01:08:46.080 : en:Глава 09
  139. 01:17:23.639 : en:Глава 10
  140. 01:23:51.151 : en:Глава 11
  141. 01:25:32.002 : en:Глава 12
  142. 01:31:40.995 : en:Глава 13
  143. 01:36:14.978 : en:Глава 14
  144. 01:38:55.763 : en:Глава 15
  145. 01:42:26.724 : en:Глава 16
  146. 01:45:11.180 : en:Глава 17
  147. 01:50:32.084 : en:Глава 18
  148. 02:00:16.584 : en:Глава 19
  149. 02:02:02.565 : en:Глава 20
RAW Paste Data