SHARE
TWEET

Krasue: Inhuman Kiss WEB-DL 1080p

dirtyharrys Jul 2nd, 2019 55 Never
Not a member of Pastebin yet? Sign Up, it unlocks many cool features!
  1. General
  2. Unique ID                   : 180205664385577432714567436765770713465 (0x8792593887D343ABC9EA54BCBC2A8979)
  3. Complete name               : E:\V0VCS3Jhc3VlSW5odW1hbktpc3M.mkv
  4. Format                      : Matroska
  5. Format version              : Version 4
  6. File size                   : 2.04 GiB
  7. Duration                    : 2 h 1 min
  8. Overall bit rate            : 2 391 kb/s
  9. Movie name                  : Krasue Inhuman Kiss WEB-DL / Krasue Inhuman Kiss WEB-DL
  10. Encoded date                : UTC 2019-07-02 06:35:05
  11. Writing application         : mkvmerge v30.1.0 ('Forever And More') 32-bit
  12. Writing library             : libebml v1.3.6 + libmatroska v1.4.9
  13. Copyright                   : Movies HDs 2019
  14. ARTIST                      : HarshLearner
  15.  
  16. Video
  17. ID                          : 1
  18. Format                      : AVC
  19. Format/Info                 : Advanced Video Codec
  20. Format profile              : High@L4
  21. Format settings             : CABAC / 4 Ref Frames
  22. Format settings, CABAC      : Yes
  23. Format settings, ReFrames   : 4 frames
  24. Codec ID                    : V_MPEG4/ISO/AVC
  25. Duration                    : 2 h 1 min
  26. Bit rate                    : 2 005 kb/s
  27. Width                       : 1 920 pixels
  28. Height                      : 804 pixels
  29. Display aspect ratio        : 2.40:1
  30. Frame rate mode             : Variable
  31. Frame rate                  : 24.000 FPS
  32. Color space                 : YUV
  33. Chroma subsampling          : 4:2:0
  34. Bit depth                   : 8 bits
  35. Scan type                   : Progressive
  36. Bits/(Pixel*Frame)          : 0.054
  37. Stream size                 : 1.71 GiB (84%)
  38. Title                       : Krasue Inhuman Kiss
  39. Writing library             : x264 core 157 r2970 5493be8
  40. Default                     : Yes
  41. Forced                      : No
  42.  
  43. Audio
  44. ID                          : 2
  45. Format                      : AAC LC
  46. Format/Info                 : Advanced Audio Codec Low Complexity
  47. Codec ID                    : A_AAC-2
  48. Duration                    : 2 h 1 min
  49. Bit rate                    : 384 kb/s
  50. Channel(s)                  : 6 channels
  51. Channel layout              : C L R Ls Rs LFE
  52. Sampling rate               : 48.0 kHz
  53. Frame rate                  : 46.875 FPS (1024 SPF)
  54. Compression mode            : Lossy
  55. Stream size                 : 335 MiB (16%)
  56. Language                    : Thai
  57. Default                     : Yes
  58. Forced                      : No
  59.  
  60. Text #1
  61. ID                          : 3
  62. Format                      : UTF-8
  63. Codec ID                    : S_TEXT/UTF8
  64. Codec ID/Info               : UTF-8 Plain Text
  65. Duration                    : 1 h 56 min
  66. Bit rate                    : 24 b/s
  67. Count of elements           : 913
  68. Stream size                 : 20.7 KiB (0%)
  69. Language                    : English
  70. Default                     : Yes
  71. Forced                      : No
  72.  
  73. Text #2
  74. ID                          : 4
  75. Format                      : UTF-8
  76. Codec ID                    : S_TEXT/UTF8
  77. Codec ID/Info               : UTF-8 Plain Text
  78. Duration                    : 2 h 0 min
  79. Bit rate                    : 17 b/s
  80. Count of elements           : 637
  81. Stream size                 : 15.7 KiB (0%)
  82. Language                    : Spanish
  83. Default                     : No
  84. Forced                      : No
  85.  
  86. Text #3
  87. ID                          : 5
  88. Format                      : UTF-8
  89. Codec ID                    : S_TEXT/UTF8
  90. Codec ID/Info               : UTF-8 Plain Text
  91. Duration                    : 2 h 0 min
  92. Bit rate                    : 19 b/s
  93. Count of elements           : 647
  94. Stream size                 : 16.9 KiB (0%)
  95. Language                    : French
  96. Default                     : No
  97. Forced                      : No
  98.  
  99. Text #4
  100. ID                          : 6
  101. Format                      : UTF-8
  102. Codec ID                    : S_TEXT/UTF8
  103. Codec ID/Info               : UTF-8 Plain Text
  104. Duration                    : 2 h 0 min
  105. Bit rate                    : 18 b/s
  106. Count of elements           : 651
  107. Stream size                 : 16.2 KiB (0%)
  108. Title                       : Brazilian Portuguese
  109. Language                    : Portuguese
  110. Default                     : No
  111. Forced                      : No
RAW Paste Data
We use cookies for various purposes including analytics. By continuing to use Pastebin, you agree to our use of cookies as described in the Cookies Policy. OK, I Understand
 
Top