SHARE
TWEET

[Doki] Kono Bijutsubu ni wa Mondai ga Aru! - 02 (1280x720 Hi10P AAC) [79AEC364].mkv

HYBRID_BEING Aug 7th, 2016 77 Never
Not a member of Pastebin yet? Sign Up, it unlocks many cool features!
  1. General
  2. Unique ID                                : 173038974274860111742473076142629581120 (0x822E181E28E26292B1E57BC6285DF140)
  3. Complete name                            : [Doki] Kono Bijutsubu ni wa Mondai ga Aru! - 02 (1280x720 Hi10P AAC) [79AEC364].mkv
  4. Format                                   : Matroska
  5. Format version                           : Version 4 / Version 2
  6. File size                                : 192 MiB
  7. Duration                                 : 24 min
  8. Overall bit rate                         : 1 112 kb/s
  9. Encoded date                             : UTC 2016-07-21 07:43:21
  10. Writing application                      : mkvmerge v9.3.1 ('Mask Machine') 64bit
  11. Writing library                          : libebml v1.3.4 + libmatroska v1.4.5
  12. Attachments                              : AlegreyaSans-Regular.otf / ArnoPro-BoldDisplay.otf / ArnoPro-Display.otf / ArnoPro-SmbdDisplay.otf / VestaPro-Bold.otf / VestaPro-BoldItalic.otf / BabyDoll.ttf / boopee_regular.ttf / KGRedHands.ttf / Lato-Bla_0.ttf / NothingYouCouldSay.ttf / Patagonia.ttf / TT_Seurat-B.TTF / WCManoNegraBta.ttf
  13.  
  14. Video
  15. ID                                       : 1
  16. Format                                   : AVC
  17. Format/Info                              : Advanced Video Codec
  18. Format profile                           : High 10@L5
  19. Format settings, CABAC                   : Yes
  20. Format settings, ReFrames                : 16 frames
  21. Codec ID                                 : V_MPEG4/ISO/AVC
  22. Duration                                 : 24 min
  23. Bit rate                                 : 937 kb/s
  24. Width                                    : 1 280 pixels
  25. Height                                   : 720 pixels
  26. Display aspect ratio                     : 16:9
  27. Frame rate mode                          : Constant
  28. Frame rate                               : 23.976 (24000/1001) FPS
  29. Color space                              : YUV
  30. Chroma subsampling                       : 4:2:0
  31. Bit depth                                : 10 bits
  32. Scan type                                : Progressive
  33. Bits/(Pixel*Frame)                       : 0.042
  34. Stream size                              : 162 MiB (84%)
  35. Title                                    : 720p (Hi10P)
  36. Writing library                          : x264 core 148 r2638 7599210
  37. Encoding settings                        : cabac=1 / ref=16 / deblock=1:0:0 / analyse=0x3:0x133 / me=umh / subme=10 / psy=1 / psy_rd=1.00:0.00 / mixed_ref=1 / me_range=24 / chroma_me=1 / trellis=2 / 8x8dct=1 / cqm=0 / deadzone=21,11 / fast_pskip=1 / chroma_qp_offset=-2 / threads=12 / lookahead_threads=2 / sliced_threads=0 / nr=0 / decimate=1 / interlaced=0 / bluray_compat=0 / constrained_intra=0 / bframes=8 / b_pyramid=2 / b_adapt=2 / b_bias=0 / direct=3 / weightb=1 / open_gop=0 / weightp=2 / keyint=240 / keyint_min=23 / scenecut=40 / intra_refresh=0 / rc_lookahead=60 / rc=crf / mbtree=1 / crf=18.0 / qcomp=0.60 / qpmin=0 / qpmax=81 / qpstep=4 / vbv_maxrate=168750 / vbv_bufsize=168750 / crf_max=0.0 / nal_hrd=none / filler=0 / ip_ratio=1.40 / aq=1:1.00
  38. Language                                 : Japanese
  39. Default                                  : Yes
  40. Forced                                   : No
  41.  
  42. Audio
  43. ID                                       : 2
  44. Format                                   : AAC
  45. Format/Info                              : Advanced Audio Codec
  46. Format profile                           : LC
  47. Codec ID                                 : A_AAC
  48. Duration                                 : 24 min
  49. Bit rate                                 : 128 kb/s
  50. Channel(s)                               : 2 channels
  51. Channel positions                        : Front: L R
  52. Sampling rate                            : 44.1 kHz
  53. Frame rate                               : 43.066 FPS (1024 spf)
  54. Compression mode                         : Lossy
  55. Stream size                              : 22.1 MiB (12%)
  56. Title                                    : Japanese (AAC)
  57. Language                                 : Japanese
  58. Default                                  : Yes
  59. Forced                                   : No
  60.  
  61. Text
  62. ID                                       : 3
  63. Format                                   : ASS
  64. Codec ID                                 : S_TEXT/ASS
  65. Codec ID/Info                            : Advanced Sub Station Alpha
  66. Duration                                 : 24 min
  67. Bit rate                                 : 11.5 kb/s
  68. Count of elements                        : 10036
  69. Compression mode                         : Lossless
  70. Stream size                              : 1.99 MiB (1%)
  71. Title                                    : Doki (English)
  72. Language                                 : English
  73. Default                                  : Yes
  74. Forced                                   : No
  75.  
  76. Menu
  77. 00:00:00.000                             : en:Prologue
  78. 00:00:35.970                             : en:OP
  79. 00:02:05.930                             : en:Part A
  80. 00:08:19.970                             : en:Part B
  81. 00:15:11.640                             : en:Part C
  82. 00:22:10.010                             : en:ED
  83. 00:23:40.020                             : en:Preview
RAW Paste Data
We use cookies for various purposes including analytics. By continuing to use Pastebin, you agree to our use of cookies as described in the Cookies Policy. OK, I Understand
Top