daily pastebin goal
31%
SHARE
TWEET

Untitled

a guest Dec 16th, 2018 65 Never
Not a member of Pastebin yet? Sign Up, it unlocks many cool features!
  1. General
  2. Complete name                    : E:\!_PHOTO\704x352.avi
  3. Format                           : AVI
  4. Format/Info                      : Audio Video Interleave
  5. File size                        : 79.7 MiB
  6. Duration                         : 4mn 3s
  7. Overall bit rate                 : 2 744 Kbps
  8. Writing application              : MEncoder SVN-r30881(20100311-gcc4.3.3)
  9. Writing library                  : MPlayer
  10.  
  11. Video
  12. ID                               : 0
  13. Format                           : MPEG-4 Visual
  14. Format profile                   : Simple@L1
  15. Format settings, BVOP            : No
  16. Format settings, QPel            : No
  17. Format settings, GMC             : No warppoints
  18. Format settings, Matrix          : Default (H.263)
  19. Codec ID                         : DX50
  20. Codec ID/Hint                    : DivX 5
  21. Duration                         : 4mn 3s
  22. Bit rate                         : 2 604 Kbps
  23. Width                            : 704 pixels
  24. Height                           : 352 pixels
  25. Display aspect ratio             : 2.000
  26. Frame rate                       : 25.000 fps
  27. Color space                      : YUV
  28. Chroma subsampling               : 4:2:0
  29. Bit depth                        : 8 bits
  30. Scan type                        : Progressive
  31. Compression mode                 : Lossy
  32. Bits/(Pixel*Frame)               : 0.420
  33. Stream size                      : 75.6 MiB (95%)
  34. Writing library                  : Lavc52.58.0
  35.  
  36. Audio
  37. ID                               : 1
  38. Format                           : MPEG Audio
  39. Format version                   : Version 1
  40. Format profile                   : Layer 3
  41. Mode                             : Joint stereo
  42. Mode extension                   : MS Stereo
  43. Codec ID                         : 55
  44. Codec ID/Hint                    : MP3
  45. Duration                         : 4mn 3s
  46. Bit rate mode                    : Constant
  47. Bit rate                         : 128 Kbps
  48. Channel(s)                       : 2 channels
  49. Sampling rate                    : 44.1 KHz
  50. Compression mode                 : Lossy
  51. Stream size                      : 3.72 MiB (5%)
  52. Alignment                        : Aligned on interleaves
  53. Interleave, duration             : 26 ms (0.65 video frame)
  54. Interleave, preload duration     : 522 ms
  55. Writing library                  : LAME3.98
RAW Paste Data
We use cookies for various purposes including analytics. By continuing to use Pastebin, you agree to our use of cookies as described in the Cookies Policy. OK, I Understand