SHARE
TWEET

Untitled

a guest Jan 25th, 2020 107 Never
Not a member of Pastebin yet? Sign Up, it unlocks many cool features!
  1. General
  2. Unique ID                                : 172904221853444602676754941777619613468 (0x8214244F7C48E6899D0FA19D0D6E771C)
  3. Complete name                            : Fate.Grand.Order.Zettai.Majuu.Sensen.Babylonia.S01E01.VOSTFR.1080p.WEBRip.x265-MGD.mkv
  4. Format                                   : Matroska
  5. Format version                           : Version 4 / Version 2
  6. File size                                : 290 MiB
  7. Duration                                 : 23mn 52s
  8. Overall bit rate                         : 1 699 Kbps
  9. Movie name                               : Fate.Grand.Order.Zettai.Majuu.Sensen.Babylonia.S01E01.VOSTFR.1080p.WEBRip.x265-MGD
  10. Encoded date                             : UTC 2020-01-25 20:50:56
  11. Writing application                      : mkvmerge v38.0.0 ('The Silent Type') 64-bit
  12. Writing library                          : libebml v1.3.9 + libmatroska v1.5.2
  13. Attachments                              : fate grand order.jpg
  14.  
  15. Video
  16. ID                                       : 1
  17. Format                                   : HEVC
  18. Format/Info                              : High Efficiency Video Coding
  19. Format profile                           : Main@L4@Main
  20. Codec ID                                 : V_MPEGH/ISO/HEVC
  21. Duration                                 : 23mn 52s
  22. Bit rate                                 : 1 440 Kbps
  23. Width                                    : 1 920 pixels
  24. Height                                   : 1 080 pixels
  25. Display aspect ratio                     : 16:9
  26. Frame rate mode                          : Constant
  27. Frame rate                               : 23.976 (24000/1001) fps
  28. Color space                              : YUV
  29. Chroma subsampling                       : 4:2:0
  30. Bit depth                                : 8 bits
  31. Bits/(Pixel*Frame)                       : 0.029
  32. Stream size                              : 246 MiB (85%)
  33. Writing library                          : x265 2.6:[Linux][GCC 5.4.0][64 bit] 8bit+10bit+12bit
  34. Encoding settings                        : cpuid=1050111 / frame-threads=3 / wpp / no-pmode / no-pme / no-psnr / no-ssim / log-level=2 / input-csp=1 / input-res=1920x1080 / interlace=0 / total-frames=0 / level-idc=0 / high-tier=1 / uhd-bd=0 / ref=3 / no-allow-non-conformance / no-repeat-headers / annexb / no-aud / no-hrd / info / hash=0 / no-temporal-layers / open-gop / min-keyint=24 / keyint=240 / bframes=4 / b-adapt=2 / b-pyramid / bframe-bias=0 / rc-lookahead=20 / lookahead-slices=6 / scenecut=40 / no-intra-refresh / ctu=64 / min-cu-size=8 / no-rect / no-amp / max-tu-size=32 / tu-inter-depth=1 / tu-intra-depth=1 / limit-tu=0 / rdoq-level=0 / dynamic-rd=0.00 / no-ssim-rd / signhide / no-tskip / nr-intra=0 / nr-inter=0 / no-constrained-intra / strong-intra-smoothing / max-merge=2 / limit-refs=3 / no-limit-modes / me=1 / subme=2 / merange=57 / temporal-mvp / weightp / no-weightb / no-analyze-src-pics / deblock=0:0 / sao / no-sao-non-deblock / rd=3 / no-early-skip / rskip / no-fast-intra / no-tskip-fast / no-cu-lossless / no-b-intra / no-splitrd-skip / rdpenalty=0 / psy-rd=2.00 / psy-rdoq=0.00 / no-rd-refine / analysis-reuse-mode=0 / no-lossless / cbqpoffs=0 / crqpoffs=0 / rc=crf / crf=22.0 / qcomp=0.60 / qpstep=4 / stats-write=0 / stats-read=0 / ipratio=1.40 / pbratio=1.30 / aq-mode=1 / aq-strength=1.00 / cutree / zone-count=0 / no-strict-cbr / qg-size=32 / no-rc-grain / qpmax=69 / qpmin=0 / no-const-vbv / sar=1 / overscan=0 / videoformat=5 / range=0 / colorprim=1 / transfer=1 / colormatrix=1 / chromaloc=0 / display-window=0 / max-cll=0,0 / min-luma=0 / max-luma=255 / log2-max-poc-lsb=8 / vui-timing-info / vui-hrd-info / slices=1 / no-opt-qp-pps / no-opt-ref-list-length-pps / no-multi-pass-opt-rps / scenecut-bias=0.05 / no-opt-cu-delta-qp / no-aq-motion / no-hdr / no-hdr-opt / no-dhdr10-opt / analysis-reuse-level=5 / scale-factor=0 / refine-intra=0 / refine-inter=0 / refine-mv=0 / no-limit-sao / ctu-info=0 / no-lowpass-dct / refine-mv-type=0 / copy-pic=1
  35. Default                                  : Yes
  36. Forced                                   : No
  37. Color range                              : Limited
  38. Color primaries                          : BT.709
  39. Transfer characteristics                 : BT.709
  40. Matrix coefficients                      : BT.709
  41.  
  42. Audio
  43. ID                                       : 2
  44. Format                                   : AAC
  45. Format/Info                              : Advanced Audio Codec
  46. Format profile                           : LC
  47. Codec ID                                 : A_AAC
  48. Duration                                 : 23mn 52s
  49. Bit rate                                 : 253 Kbps
  50. Channel(s)                               : 2 channels
  51. Channel positions                        : Front: L R
  52. Sampling rate                            : 48.0 KHz
  53. Frame rate                               : 46.875 fps (1024 spf)
  54. Compression mode                         : Lossy
  55. Delay relative to video                  : -42ms
  56. Stream size                              : 43.3 MiB (15%)
  57. Title                                    : Stereo
  58. Language                                 : Japanese
  59. Default                                  : Yes
  60. Forced                                   : No
  61.  
  62. Text
  63. ID                                       : 3
  64. Format                                   : ASS
  65. Codec ID                                 : S_TEXT/ASS
  66. Codec ID/Info                            : Advanced Sub Station Alpha
  67. Duration                                 : 23mn 34s
  68. Bit rate                                 : 92 bps
  69. Count of elements                        : 306
  70. Compression mode                         : Lossless
  71. Stream size                              : 16.0 KiB (0%)
  72. Title                                    : French
  73. Language                                 : French
  74. Default                                  : No
  75. Forced                                   : No
RAW Paste Data
We use cookies for various purposes including analytics. By continuing to use Pastebin, you agree to our use of cookies as described in the Cookies Policy. OK, I Understand
Top