GrabHD

Untitled

Feb 26th, 2020
115
Never
Not a member of Pastebin yet? Sign Up, it unlocks many cool features!
  1. Источник: Bombshell.2019.1080p.AMZN.WEB-DL.DDP5.1.H.264-NTG
  2. General
  3. Unique ID : 235077688905495516135406446528657183554 (0xB0DA50E779DDDBE1816CFA9158095342)
  4. Complete name : Bombshell.2019.AMZN.WEB-DL.1080p.mkv
  5. Format : Matroska
  6. Format version : Version 4
  7. File size : 6.84 GiB
  8. Duration : 1 h 48 min
  9. Overall bit rate : 9 010 kb/s
  10. Encoded date : UTC 2020-02-26 15:39:54
  11. Writing application : mkvmerge v7.1.0 ('Good Love') 64bit built on Jul 27 2014 13:06:55
  12. Writing library : libebml v1.3.0 + libmatroska v1.4.1
  13.  
  14. Video
  15. ID : 1
  16. Format : AVC
  17. Format/Info : Advanced Video Codec
  18. Format profile : High@L4
  19. Format settings : CABAC / 4 Ref Frames
  20. Format settings, CABAC : Yes
  21. Format settings, Reference fra : 4 frames
  22. Codec ID : V_MPEG4/ISO/AVC
  23. Duration : 1 h 48 min
  24. Bit rate mode : Constant
  25. Bit rate : 8 111 kb/s
  26. Nominal bit rate : 10 000 kb/s
  27. Width : 1 920 pixels
  28. Height : 800 pixels
  29. Display aspect ratio : 2.40:1
  30. Frame rate mode : Constant
  31. Frame rate : 23.976 (24000/1001) FPS
  32. Color space : YUV
  33. Chroma subsampling : 4:2:0
  34. Bit depth : 8 bits
  35. Scan type : Progressive
  36. Bits/(Pixel*Frame) : 0.220
  37. Stream size : 6.16 GiB (90%)
  38. Language : English
  39. Default : Yes
  40. Forced : No
  41. Color range : Limited
  42. Color primaries : BT.709
  43. Transfer characteristics : BT.709
  44. Matrix coefficients : BT.709
  45.  
  46. Audio #1
  47. ID : 2
  48. Format : AC-3
  49. Format/Info : Audio Coding 3
  50. Commercial name : Dolby Digital
  51. Codec ID : A_AC3
  52. Duration : 1 h 48 min
  53. Bit rate mode : Constant
  54. Bit rate : 256 kb/s
  55. Channel(s) : 2 channels
  56. Channel layout : L R
  57. Sampling rate : 48.0 kHz
  58. Frame rate : 31.250 FPS (1536 SPF)
  59. Compression mode : Lossy
  60. Stream size : 199 MiB (3%)
  61. Title : LakeFilms
  62. Language : Russian
  63. Service kind : Complete Main
  64. Default : Yes
  65. Forced : No
  66.  
  67. Audio #2
  68. ID : 3
  69. Format : E-AC-3
  70. Format/Info : Enhanced AC-3
  71. Commercial name : Dolby Digital Plus
  72. Codec ID : A_EAC3
  73. Duration : 1 h 48 min
  74. Bit rate mode : Constant
  75. Bit rate : 640 kb/s
  76. Channel(s) : 6 channels
  77. Channel layout : L R C LFE Ls Rs
  78. Sampling rate : 48.0 kHz
  79. Frame rate : 31.250 FPS (1536 SPF)
  80. Compression mode : Lossy
  81. Stream size : 498 MiB (7%)
  82. Language : English
  83. Service kind : Complete Main
  84. Default : No
  85. Forced : No
  86.  
  87. Text #1
  88. ID : 4
  89. Format : UTF-8
  90. Codec ID : S_TEXT/UTF8
  91. Codec ID/Info : UTF-8 Plain Text
  92. Duration : 1 h 43 min
  93. Bit rate : 84 b/s
  94. Count of elements : 2136
  95. Stream size : 63.6 KiB (0%)
  96. Language : English
  97. Default : No
  98. Forced : No
  99.  
  100. Text #2
  101. ID : 5
  102. Format : UTF-8
  103. Codec ID : S_TEXT/UTF8
  104. Codec ID/Info : UTF-8 Plain Text
  105. Duration : 1 h 43 min
  106. Bit rate : 88 b/s
  107. Count of elements : 2269
  108. Stream size : 67.2 KiB (0%)
  109. Title : SDH
  110. Language : English
  111. Default : No
  112. Forced : No
  113.  
  114. Menu
  115. 00:00:00.000 : en:Disclaimer
  116. 00:00:15.000 : en:Studio Logos
  117. 00:01:14.000 : en:Scene 3
  118. 00:09:20.000 : en:Scene 4
  119. 00:18:26.000 : en:Scene 5
  120. 00:22:20.000 : en:Scene 6
  121. 00:26:38.000 : en:Scene 7
  122. 00:32:01.000 : en:Scene 8
  123. 00:34:32.000 : en:Scene 9
  124. 00:35:00.000 : en:Scene 10
  125. 00:43:37.000 : en:Scene 11
  126. 00:46:10.000 : en:Scene 12
  127. 00:51:10.000 : en:Scene 13
  128. 00:53:11.000 : en:Scene 14
  129. 00:55:45.000 : en:Scene 15
  130. 00:59:33.000 : en:Scene 16
  131. 01:02:03.000 : en:Scene 17
  132. 01:05:14.000 : en:Scene 18
  133. 01:10:41.000 : en:Scene 19
  134. 01:19:27.000 : en:Scene 20
  135. 01:26:08.000 : en:Scene 21
  136. 01:32:31.000 : en:Scene 22
  137. 01:36:47.000 : en:Scene 23
  138. 01:40:18.000 : en:Scene 24
  139. 01:43:47.000 : en:Acknowledgement
  140. 01:44:17.000 : en:End Credits
RAW Paste Data