Interfilm

Untitled

Nov 10th, 2014
210
Never
Not a member of Pastebin yet? Sign Up, it unlocks many cool features!
  1. General
  2. Nailbiter.2013.WEB-DL.720p.CINEMANIA.mkv
  3. Format : Matroska
  4. Format version : Version 4 / Version 2
  5. File size : 2.53 GiB
  6. Duration : 1h 21mn
  7. Overall bit rate : 4 446 Kbps
  8. Movie name : Release Group CINEMANIA
  9. Encoded date : UTC 2014-11-10 08:39:17
  10. Writing application : mkvmerge v7.3.0 ('Nouages') 64bit built on Oct 22 2014 18:53:34
  11. Writing library : libebml v1.3.0 + libmatroska v1.4.1
  12.  
  13. Video
  14. ID : 1
  15. Format : AVC
  16. Format/Info : Advanced Video Codec
  17. Format profile : High@L4.0
  18. Format settings, CABAC : Yes
  19. Format settings, ReFrames : 8 frames
  20. Codec ID : V_MPEG4/ISO/AVC
  21. Duration : 1h 21mn
  22. Bit rate : 3 500 Kbps
  23. Width : 1 280 pixels
  24. Height : 536 pixels
  25. Display aspect ratio : 2.40:1
  26. Frame rate mode : Constant
  27. Frame rate : 23.976 fps
  28. Color space : YUV
  29. Chroma subsampling : 4:2:0
  30. Bit depth : 8 bits
  31. Scan type : Progressive
  32. Bits/(Pixel*Frame) : 0.213
  33. Stream size : 1.94 GiB (76%)
  34. Title : Release Group CINEMANIA
  35. Writing library : x264 core 130 r2273 b3065e6
  36. Encoding settings : cabac=1 / ref=8 / deblock=1:-1:-1 / analyse=0x3:0x133 / me=umh / subme=7 / psy=1 / psy_rd=1.00:0.10 / mixed_ref=1 / me_range=16 / chroma_me=1 / trellis=2 / 8x8dct=1 / cqm=0 / deadzone=21,11 / fast_pskip=0 / chroma_qp_offset=-3 / threads=6 / lookahead_threads=1 / sliced_threads=0 / nr=0 / decimate=1 / interlaced=0 / bluray_compat=0 / constrained_intra=0 / bframes=3 / b_pyramid=2 / b_adapt=2 / b_bias=0 / direct=1 / weightb=1 / open_gop=0 / weightp=2 / keyint=250 / keyint_min=23 / scenecut=40 / intra_refresh=0 / rc_lookahead=50 / rc=abr / mbtree=1 / bitrate=3500 / ratetol=1.0 / qcomp=0.60 / qpmin=0 / qpmax=69 / qpstep=4 / ip_ratio=1.40 / aq=1:1.00
  37. Language : English
  38. Default : Yes
  39. Forced : No
  40.  
  41. Audio #1
  42. ID : 2
  43. Format : AC-3
  44. Format/Info : Audio Coding 3
  45. Mode extension : CM (complete main)
  46. Format settings, Endianness : Big
  47. Codec ID : A_AC3
  48. Duration : 1h 21mn
  49. Bit rate mode : Constant
  50. Bit rate : 192 Kbps
  51. Channel(s) : 2 channels
  52. Channel positions : Front: L R
  53. Sampling rate : 48.0 KHz
  54. Bit depth : 16 bits
  55. Compression mode : Lossy
  56. Stream size : 112 MiB (4%)
  57. Title : КиноПремиум HD
  58. Language : Russian
  59. Default : Yes
  60. Forced : Yes
  61.  
  62. Audio #2
  63. ID : 3
  64. Format : AC-3
  65. Format/Info : Audio Coding 3
  66. Mode extension : CM (complete main)
  67. Format settings, Endianness : Big
  68. Codec ID : A_AC3
  69. Duration : 1h 21mn
  70. Bit rate mode : Constant
  71. Bit rate : 384 Kbps
  72. Channel(s) : 6 channels
  73. Channel positions : Front: L C R, Side: L R, LFE
  74. Sampling rate : 48.0 KHz
  75. Bit depth : 16 bits
  76. Compression mode : Lossy
  77. Stream size : 224 MiB (9%)
  78. Title : den904
  79. Language : Russian
  80. Default : No
  81. Forced : No
  82.  
  83. Audio #3
  84. ID : 4
  85. Format : AC-3
  86. Format/Info : Audio Coding 3
  87. Mode extension : CM (complete main)
  88. Format settings, Endianness : Big
  89. Codec ID : A_AC3
  90. Duration : 1h 21mn
  91. Bit rate mode : Constant
  92. Bit rate : 384 Kbps
  93. Channel(s) : 6 channels
  94. Channel positions : Front: L C R, Side: L R, LFE
  95. Sampling rate : 48.0 KHz
  96. Bit depth : 16 bits
  97. Compression mode : Lossy
  98. Stream size : 224 MiB (9%)
  99. Language : English
  100. Default : No
  101. Forced : No
  102.  
  103. Text #1
  104. ID : 5
  105. Format : UTF-8
  106. Codec ID : S_TEXT/UTF8
  107. Codec ID/Info : UTF-8 Plain Text
  108. Language : Russian
  109. Default : Yes
  110. Forced : Yes
  111.  
  112. Text #2
  113. ID : 6
  114. Format : UTF-8
  115. Codec ID : S_TEXT/UTF8
  116. Codec ID/Info : UTF-8 Plain Text
  117. Language : English
  118. Default : No
  119. Forced : No
  120.  
  121. Menu
  122. 00:00:00.000 : en:Chapter 1
  123. 00:02:50.000 : en:Chapter 2
  124. 00:11:04.000 : en:Chapter 3
  125. 00:20:02.000 : en:Chapter 4
  126. 00:28:04.000 : en:Chapter 5
  127. 00:38:23.000 : en:Chapter 6
  128. 00:46:05.000 : en:Chapter 7
  129. 00:56:11.000 : en:Chapter 8
  130. 01:06:05.000 : en:Chapter 9
  131. 01:16:32.000 : en:Chapter 10
RAW Paste Data