Advertisement
Asmodexia

X-Men.2000.2160p.UHD.BluRay.x265.10bit.HDR.DTS-HD.MA.5.1-RARBG

May 5th, 2023
162
0
Never
Not a member of Pastebin yet? Sign Up, it unlocks many cool features!
JSON 6.04 KB | None | 0 0
  1. X-Men.2000.2160p.UHD.BluRay.x265.10bit.HDR.DTS-HD.MA.5.1-RARBG
  2.  
  3. Video
  4. ID : 1
  5. Format : HEVC
  6. Format/Info : High Efficiency Video Coding
  7. Format profile : Main 10@L5.1@Main
  8. HDR format : SMPTE ST 2086, HDR10 compatible
  9. Codec ID : V_MPEGH/ISO/HEVC
  10. Duration : 1 h 44 min
  11. Bit rate : 8 018 kb/s
  12. Width : 3 840 pixels
  13. Height : 1 600 pixels
  14. Display aspect ratio : 2.40:1
  15. Frame rate mode : Constant
  16. Frame rate : 23.976 (24000/1001) FPS
  17. Color space : YUV
  18. Chroma subsampling : 4:2:0
  19. Bit depth : 10 bits
  20. Bits/(Pixel*Frame) : 0.054
  21. Stream size : 5.85 GiB (66%)
  22. Writing library : x265 3.5+rarbg-HDR-38-20255e6:[Linux][clang 16.0.0][64 bit] 10bit
  23. Encoding settings : cpuid=1111039 / frame-threads=6 / wpp / no-pmode / no-pme / no-psnr / no-ssim / log-level=2 / input-csp=1 / input-res=3840x1600 / interlace=0 / total-frames=0 / level-idc=51 / high-tier=1 / uhd-bd=0 / ref=4 / no-allow-non-conformance / repeat-headers / annexb / aud / no-eob / no-eos / no-hrd / info / hash=0 / no-temporal-layers / no-open-gop / min-keyint=1 / keyint=24 / gop-lookahead=0 / bframes=4 / b-adapt=2 / b-pyramid / bframe-bias=0 / rc-lookahead=25 / lookahead-slices=4 / scenecut=40 / no-hist-scenecut / radl=0 / no-splice / no-intra-refresh / ctu=64 / min-cu-size=8 / rect / no-amp / max-tu-size=32 / tu-inter-depth=1 / tu-intra-depth=1 / limit-tu=0 / rdoq-level=2 / dynamic-rd=0.00 / no-ssim-rd / signhide / no-tskip / nr-intra=0 / nr-inter=0 / no-constrained-intra / strong-intra-smoothing / max-merge=3 / limit-refs=3 / no-limit-modes / me=3 / subme=3 / merange=57 / temporal-mvp / no-frame-dup / no-hme / weightp / no-weightb / no-analyze-src-pics / deblock=0:0 / no-sao / no-sao-non-deblock / rd=4 / selective-sao=0 / no-early-skip / rskip / no-fast-intra / no-tskip-fast / no-cu-lossless / no-b-intra / no-splitrd-skip / rdpenalty=0 / psy-rd=2.00 / psy-rdoq=1.00 / no-rd-refine / no-lossless / cbqpoffs=0 / crqpoffs=0 / rc=abr / bitrate=8000 / qcomp=0.60 / qpstep=4 / stats-write=0 / stats-read=2 / cplxblur=20.0 / qblur=0.5 / ipratio=1.40 / pbratio=1.30 / aq-mode=1 / aq-strength=1.00 / cutree / zone-count=0 / no-strict-cbr / qg-size=32 / no-rc-grain / qpmax=69 / qpmin=0 / no-const-vbv / sar=1 / overscan=0 / videoformat=5 / range=0 / colorprim=9 / transfer=16 / colormatrix=9 / chromaloc=0 / display-window=0 / master-display=G(13250,34500)B(7500,3000)R(34000,16000)WP(15635,16450)L(10000000,50) / cll=0,0 / min-luma=0 / max-luma=1023 / log2-max-poc-lsb=8 / vui-timing-info / vui-hrd-info / slices=1 / no-opt-qp-pps / no-opt-ref-list-length-pps / no-multi-pass-opt-rps / scenecut-bias=0.05 / hist-threshold=0.03 / no-opt-cu-delta-qp / no-aq-motion / hdr10 / hdr10-opt / no-dhdr10-opt / no-idr-recovery-sei / analysis-reuse-level=0 / analysis-save-reuse-level=0 / analysis-load-reuse-level=0 / scale-factor=0 / refine-intra=0 / refine-inter=0 / refine-mv=1 / refine-ctu-distortion=0 / no-limit-sao / ctu-info=0 / no-lowpass-dct / refine-analysis-type=0 / copy-pic=1 / max-ausize-factor=1.0 / no-dynamic-refine / no-single-sei / no-hevc-aq / no-svt / no-field / qp-adaptation-range=1.00 / scenecut-aware-qp=0conformance-window-offsets / right=0 / bottom=0 / decoder-max-rate=0 / no-vbv-live-multi-pass
  24. Default : Yes
  25. Forced : No
  26. Color range : Limited
  27. Color primaries : BT.2020
  28. Transfer characteristics : PQ
  29. Matrix coefficients : BT.2020 non-constant
  30. Mastering display color primaries : Display P3
  31. Mastering display luminance : min: 0.0050 cd/m2, max: 1000 cd/m2
  32.  
  33. Audio #1
  34. ID : 2
  35. Format : DTS XLL
  36. Format/Info : Digital Theater Systems
  37. Commercial name : DTS-HD Master Audio
  38. Codec ID : A_DTS
  39. Duration : 1 h 44 min
  40. Bit rate mode : Variable
  41. Bit rate : 3 812 kb/s
  42. Channel(s) : 6 channels
  43. Channel layout : C L R Ls Rs LFE
  44. Sampling rate : 48.0 kHz
  45. Frame rate : 93.750 FPS (512 SPF)
  46. Bit depth : 24 bits
  47. Compression mode : Lossless
  48. Stream size : 2.78 GiB (31%)
  49. Title : English DTS-HD MA 5.1
  50. Language : English
  51. Default : Yes
  52. Forced : No
  53.  
  54. Audio #2
  55. ID : 3
  56. Format : AC-3
  57. Format/Info : Audio Coding 3
  58. Commercial name : Dolby Digital
  59. Codec ID : A_AC3
  60. Duration : 1 h 44 min
  61. Bit rate mode : Constant
  62. Bit rate : 384 kb/s
  63. Channel(s) : 6 channels
  64. Channel layout : L R C LFE Ls Rs
  65. Sampling rate : 48.0 kHz
  66. Frame rate : 31.250 FPS (1536 SPF)
  67. Compression mode : Lossy
  68. Stream size : 287 MiB (3%)
  69. Title : English DD 5.1
  70. Language : English
  71. Service kind : Complete Main
  72. Default : No
  73. Forced : No
  74.  
  75. Text #1
  76. ID : 4
  77. Format : UTF-8
  78. Codec ID : S_TEXT/UTF8
  79. Codec ID/Info : UTF-8 Plain Text
  80. Duration : 1 h 34 min
  81. Bit rate : 35 b/s
  82. Frame rate : 0.122 FPS
  83. Count of elements : 691
  84. Stream size : 24.8 KiB (0%)
  85. Title : English SRT
  86. Language : English
  87. Default : Yes
  88. Forced : No
  89.  
  90. Text #2
  91. ID : 5
  92. Format : UTF-8
  93. Codec ID : S_TEXT/UTF8
  94. Codec ID/Info : UTF-8 Plain Text
  95. Duration : 1 h 34 min
  96. Bit rate : 38 b/s
  97. Frame rate : 0.132 FPS
  98. Count of elements : 748
  99. Stream size : 26.6 KiB (0%)
  100. Title : English SDH SRT
  101. Language : English
  102. Default : No
  103. Forced : No
  104.  
  105. Menu
  106. 00:00:00.000 : en:Chapter 01
  107. 00:01:19.287 : en:Chapter 02
  108. 00:04:17.882 : en:Chapter 03
  109. 00:05:56.022 : en:Chapter 04
  110. 00:07:55.975 : en:Chapter 05
  111. 00:09:23.437 : en:Chapter 06
  112. 00:11:37.697 : en:Chapter 07
  113. 00:14:38.127 : en:Chapter 08
  114. 00:18:01.663 : en:Chapter 09
  115. 00:20:49.665 : en:Chapter 10
  116. 00:22:09.119 : en:Chapter 11
  117. 00:23:58.562 : en:Chapter 12
  118. 00:28:45.557 : en:Chapter 13
  119. 00:29:55.168 : en:Chapter 14
  120. 00:32:06.507 : en:Chapter 15
  121. 00:33:37.557 : en:Chapter 16
  122. 00:36:36.861 : en:Chapter 17
  123. 00:38:24.802 : en:Chapter 18
  124. 00:41:11.886 : en:Chapter 19
  125. 00:44:13.525 : en:Chapter 20
  126. 00:45:50.372 : en:Chapter 21
  127. 00:48:41.543 : en:Chapter 22
  128. 00:50:22.436 : en:Chapter 23
  129. 00:52:05.664 : en:Chapter 24
  130. 00:54:58.044 : en:Chapter 25
  131. 00:58:11.154 : en:Chapter 26
  132. 00:59:19.430 : en:Chapter 27
  133. 01:01:54.585 : en:Chapter 28
  134. 01:03:17.293 : en:Chapter 29
  135. 01:06:02.249 : en:Chapter 30
  136. 01:08:39.782 : en:Chapter 31
  137. 01:12:21.378 : en:Chapter 32
  138. 01:18:03.804 : en:Chapter 33
  139. 01:20:53.139 : en:Chapter 34
  140. 01:24:28.063 : en:Chapter 35
  141. 01:26:58.421 : en:Chapter 36
  142. 01:29:08.509 : en:Chapter 37
  143. 01:31:47.210 : en:Chapter 38
  144. 01:33:12.878 : en:Chapter 39
  145. 01:35:12.123 : en:Chapter 40
Advertisement
Add Comment
Please, Sign In to add comment
Advertisement