Advertisement
Crmek

Untitled

Jan 21st, 2022
22
Never
Not a member of Pastebin yet? Sign Up, it unlocks many cool features!
  1. Общее
  2. Уникальный идентификатор : 249486669722581293220693778081678637726 (0xBBB16281E30BB27CA024BD22EB783A9E)
  3. Полное имя : Eternals.2021.WEB-DL.1080p..mkv
  4. Формат : Matroska
  5. Версия формата : Version 4 / Version 2
  6. Размер файла : 12,6 Гбайт
  7. Продолжительность : 2 ч. 36 м.
  8. Общий поток : 11,5 Мбит/сек
  9. Дата кодирования : UTC 2022-01-21 14:14:37
  10. Программа кодирования : mkvmerge v8.3.0 ('Over the Horizon') 64bit
  11. Библиотека кодирования : libebml v1.3.1 + libmatroska v1.4.2
  12.  
  13. Видео
  14. Идентификатор : 1
  15. Формат : AVC
  16. Формат/Информация : Advanced Video Codec
  17. Профиль формата : High@L4
  18. Настройки формата : CABAC / 5 Ref Frames
  19. Параметр CABAC формата : Да
  20. Параметр RefFrames формата : 5 кадров
  21. Идентификатор кодека : V_MPEG4/ISO/AVC
  22. Продолжительность : 2 ч. 36 м.
  23. Битрейт : 9 903 Кбит/сек
  24. Ширина : 1 920 пикселей
  25. Высота : 804 пикселя
  26. Соотношение сторон : 2,40:1
  27. Режим частоты кадров : Постоянный
  28. Частота кадров : 23,976 кадра/сек
  29. Цветовое пространство : YUV
  30. Субдискретизация насыщенности : 4:2:0
  31. Битовая глубина : 8 бит
  32. Тип развёртки : Прогрессивная
  33. Бит/(Пиксели*Кадры) : 0.268
  34. Размер потока : 10,8 Гбайт (86%)
  35. Default : Да
  36. Forced : Нет
  37. Цветовой диапазон : Limited
  38. Основные цвета : BT.709
  39. Характеристики трансфера : BT.709
  40. Коэффициенты матрицы : BT.709
  41.  
  42. Аудио #1
  43. Идентификатор : 2
  44. Формат : AC-3
  45. Формат/Информация : Audio Coding 3
  46. Коммерческое название : Dolby Digital
  47. Идентификатор кодека : A_AC3
  48. Продолжительность : 2 ч. 36 м.
  49. Вид битрейта : Постоянный
  50. Битрейт : 384 Кбит/сек
  51. Каналы : 6 каналов
  52. Channel layout : L R C LFE Ls Rs
  53. Частота : 48,0 КГц
  54. Частота кадров : 31,250 кадров/сек (1536 SPF)
  55. Метод сжатия : С потерями
  56. Размер потока : 429 Мбайт (3%)
  57. Заголовок : DUB (iTunes)
  58. Язык : Russian
  59. Service kind : Complete Main
  60. Default : Да
  61. Forced : Нет
  62.  
  63. Аудио #2
  64. Идентификатор : 3
  65. Формат : AC-3
  66. Формат/Информация : Audio Coding 3
  67. Коммерческое название : Dolby Digital
  68. Идентификатор кодека : A_AC3
  69. Продолжительность : 2 ч. 35 м.
  70. Вид битрейта : Постоянный
  71. Битрейт : 448 Кбит/сек
  72. Каналы : 6 каналов
  73. Channel layout : L R C LFE Ls Rs
  74. Частота : 48,0 КГц
  75. Частота кадров : 31,250 кадров/сек (1536 SPF)
  76. Метод сжатия : С потерями
  77. Размер потока : 499 Мбайт (4%)
  78. Заголовок : MVO (HDRezka studio)
  79. Язык : Russian
  80. Service kind : Complete Main
  81. Default : Нет
  82. Forced : Нет
  83.  
  84. Аудио #3
  85. Идентификатор : 4
  86. Формат : E-AC-3 JOC
  87. Формат/Информация : Enhanced AC-3 with Joint Object Coding
  88. Коммерческое название : Dolby Digital Plus with Dolby Atmos
  89. Идентификатор кодека : A_EAC3
  90. Продолжительность : 2 ч. 35 м.
  91. Вид битрейта : Постоянный
  92. Битрейт : 768 Кбит/сек
  93. Каналы : 6 каналов
  94. Channel layout : L R C LFE Ls Rs
  95. Частота : 48,0 КГц
  96. Частота кадров : 31,250 кадров/сек (1536 SPF)
  97. Метод сжатия : С потерями
  98. Размер потока : 856 Мбайт (7%)
  99. Заголовок : Original
  100. Язык : English
  101. Service kind : Complete Main
  102. Default : Нет
  103. Forced : Нет
  104. Complexity index : 16
  105. Number of dynamic objects : 15
  106. Bed channel count : 1 канал
  107. Bed channel configuration : LFE
  108.  
  109. Текст #1
  110. Идентификатор : 5
  111. Формат : UTF-8
  112. Идентификатор кодека : S_TEXT/UTF8
  113. Идентификатор кодека/Информация : UTF-8 Plain Text
  114. Продолжительность : 2 ч. 35 м.
  115. Битрейт : 4 бит/сек
  116. Count of elements : 117
  117. Размер потока : 5,07 Кбайт (0%)
  118. Заголовок : Forced
  119. Язык : Russian
  120. Default : Да
  121. Forced : Нет
  122.  
  123. Текст #2
  124. Идентификатор : 6
  125. Формат : UTF-8
  126. Идентификатор кодека : S_TEXT/UTF8
  127. Идентификатор кодека/Информация : UTF-8 Plain Text
  128. Продолжительность : 2 ч. 35 м.
  129. Битрейт : 71 бит/сек
  130. Count of elements : 1783
  131. Размер потока : 81,7 Кбайт (0%)
  132. Заголовок : Full
  133. Язык : Russian
  134. Default : Нет
  135. Forced : Нет
  136.  
  137. Текст #3
  138. Идентификатор : 7
  139. Формат : UTF-8
  140. Идентификатор кодека : S_TEXT/UTF8
  141. Идентификатор кодека/Информация : UTF-8 Plain Text
  142. Продолжительность : 2 ч. 33 м.
  143. Битрейт : 41 бит/сек
  144. Count of elements : 1784
  145. Размер потока : 46,6 Кбайт (0%)
  146. Заголовок : Full
  147. Язык : English
  148. Default : Нет
  149. Forced : Нет
  150.  
  151. Текст #4
  152. Идентификатор : 8
  153. Формат : UTF-8
  154. Идентификатор кодека : S_TEXT/UTF8
  155. Идентификатор кодека/Информация : UTF-8 Plain Text
  156. Продолжительность : 2 ч. 33 м.
  157. Битрейт : 51 бит/сек
  158. Count of elements : 2210
  159. Размер потока : 58,2 Кбайт (0%)
  160. Заголовок : SDH
  161. Язык : English
  162. Default : Нет
  163. Forced : Нет
  164.  
Advertisement
Advertisement
Advertisement
RAW Paste Data Copied
Advertisement