daily pastebin goal
37%
SHARE
TWEET

Untitled

a guest Apr 6th, 2016 548 Never
Not a member of Pastebin yet? Sign Up, it unlocks many cool features!
  1. 2016/04/07, 10:43:36: currentFile: GATE  自衛隊 彼の地にて、斯く戦えり_テレビ愛知_2016_03_13_01_50_00.wtv
  2. 2016/04/07, 10:43:36: converting from wtv to mpghq
  3. 2016/04/07, 10:43:36: callFunc: "convert_wtv2mpghq"
  4. 2016/04/07, 10:43:36: callFunc: "convertTo_wtv2mpghq"
  5. 2016/04/07, 10:43:36: callFunc: "checkStream"
  6. 2016/04/07, 10:43:36: run (get streamInfo): "J:\Program Files (x86)\MC-TVConverter\tools\ffmpeg\ffmpeg.exe" -i "E:\Recorded TV\GATE  自衛隊 彼の地にて、斯く戦えり_テレビ愛知_2016_03_13_01_50_00.wtv"
  7. 2016/04/07, 10:43:39: streamInfo: stream has MPEG2 video
  8. 2016/04/07, 10:43:39: streamInfo: stream has no AAC LATM audio
  9. 2016/04/07, 10:43:39: streamInfo: stream has no E-AC3 audio
  10. 2016/04/07, 10:43:39: streamInfo: stream has no AC3 audio
  11. 2016/04/07, 10:43:39: user settings: convertAacLatm [1], convertEac3 [0], convertWithFfmpeg [1]
  12. 2016/04/07, 10:43:39: Convert WTV using FFmpeg
  13. 2016/04/07, 10:43:39: callFunc: "convertTo_mpghq"
  14. 2016/04/07, 10:43:39: callFunc: "checkStream"
  15. 2016/04/07, 10:43:39: run (get streamInfo): "J:\Program Files (x86)\MC-TVConverter\tools\ffmpeg\ffmpeg.exe" -i "E:\Recorded TV\GATE  自衛隊 彼の地にて、斯く戦えり_テレビ愛知_2016_03_13_01_50_00.wtv"
  16. 2016/04/07, 10:43:40: streamInfo: stream has MPEG2 video
  17. 2016/04/07, 10:43:40: streamInfo: stream has no AAC LATM audio
  18. 2016/04/07, 10:43:40: streamInfo: stream has no E-AC3 audio
  19. 2016/04/07, 10:43:40: streamInfo: stream has no AC3 audio
  20. 2016/04/07, 10:43:40: callFunc: "getAVMapping"
  21. 2016/04/07, 10:43:40: user settings: preferredLanguage[auto]
  22. 2016/04/07, 10:43:42: streamInfo: Stream #0:0[0x3c](jpn): Audio: aac ([0][22][0][0] / 0x1600), 48000 Hz, stereo, s16, 171 kb/s
  23.  
  24. 2016/04/07, 10:43:42: streamInfo: Stream #0:1[0x3f](eng): Audio: aac ([0][22][0][0] / 0x1600), 22050 Hz, 5.1, s16, 538 kb/s
  25.  
  26. 2016/04/07, 10:43:42: streamInfo: Stream #0:2[0x40]: Video: mpeg2video (Main), yuv420p, 1440x1080 [SAR 4:3 DAR 16:9], 24000 kb/s, 33.67 fps, 29.97 tbr, 10000k tbn, 59.94 tbc
  27.  
  28. 2016/04/07, 10:43:42: used a/v mapping: " -map 0:2 -map 0:1"
  29. 2016/04/07, 10:43:42: run: "J:\Program Files (x86)\MC-TVConverter\tools\ffmpeg\ffmpeg.exe" -y -i "E:\Recorded TV\GATE  自衛隊 彼の地にて、斯く戦えり_テレビ愛知_2016_03_13_01_50_00.wtv"  -vcodec copy -f vob -acodec ac3 -ab 384k -ac 6 -async 48000 -map 0:2 -map 0:1 "E:\Recorded TV\GATE  自衛隊 彼の地にて、斯く戦えり_テレビ愛知_2016_03_13_01_50_00.wtv.mpg"
  30. ffmpeg version N-33308-g6638207, Copyright (c) 2000-2011 the FFmpeg developers
  31.   built on Oct  5 2011 22:56:15 with gcc 4.6.1
  32.   configuration: --enable-gpl --enable-version3 --enable-runtime-cpudetect --enable-avisynth --enable-bzlib --enable-frei0r --enable-libopencore-amrnb --enable-libopencore-amrwb --enable-libfreetype --enable-libgsm --enable-libmp3lame --enable-libopenjpeg --enable-librtmp --enable-libschroedinger --enable-libspeex --enable-libtheora --enable-libvo-aacenc --enable-libvo-amrwbenc --enable-libvorbis --enable-libvpx --enable-libx264 --enable-libxavs --enable-libxvid --enable-zlib
  33.   libavutil    51. 19. 0 / 51. 19. 0
  34.   libavcodec   53. 19. 0 / 53. 19. 0
  35.   libavformat  53. 14. 0 / 53. 14. 0
  36.   libavdevice  53.  4. 0 / 53.  4. 0
  37.   libavfilter   2. 43. 6 /  2. 43. 6
  38.   libswscale    2.  1. 0 /  2.  1. 0
  39.   libpostproc  51.  2. 0 / 51.  2. 0
  40. [wtv @ 01D0B940] unsupported chunk:8340953ad0933e4690b20742c496edf0
  41. [wtv @ 01D0B940] unknown media type, mediatype:20806de046dbcf11b4d100805f6cbbea, subtype:286ddc36a6f1164290489cfcefeb5eba, formattype:d617640f18c3d011a43f00a0c9223196
  42. [wtv @ 01D0B940] unknown media type, mediatype:20806de046dbcf11b4d100805f6cbbea, subtype:7dd69d05552e414d8d1b01f5e4f50607, formattype:d617640f18c3d011a43f00a0c9223196
  43. [wtv @ 01D0B940] unsupported chunk:8340953ad0933e4690b20742c496edf0
  44.     Last message repeated 1 times
  45. [wtv @ 01D0B940] unsupported chunk:ae31d8ea29551f4dafce0d8cd1257d30
  46. [wtv @ 01D0B940] unsupported chunk:839574409d6bec4eb43c67a1801e1a9b
  47.     Last message repeated 1 times
  48. [wtv @ 01D0B940] unsupported metadata entry; key:License_0, type:2, length:0x1da
  49. [wtv @ 01D0B940] unsupported metadata entry; key:License_1, type:2, length:0x1da
  50. [wtv @ 01D0B940] unsupported metadata entry; key:License_2, type:2, length:0x1da
  51. [wtv @ 01D0B940] unsupported chunk:839574409d6bec4eb43c67a1801e1a9b
  52.     Last message repeated 2 times
  53. [wtv @ 01D0B940] unsupported chunk:7966b5e0b912cc43b7df578caa5a7b63
  54. [wtv @ 01D0B940] unsupported chunk:839574409d6bec4eb43c67a1801e1a9b
  55.     Last message repeated 8 times
  56. [wtv @ 01D0B940] unsupported chunk:7966b5e0b912cc43b7df578caa5a7b63
  57. [wtv @ 01D0B940] unsupported chunk:839574409d6bec4eb43c67a1801e1a9b
  58.     Last message repeated 2 times
  59. [wtv @ 01D0B940] unsupported chunk:7966b5e0b912cc43b7df578caa5a7b63
  60. [wtv @ 01D0B940] unsupported chunk:839574409d6bec4eb43c67a1801e1a9b
  61.     Last message repeated 5 times
  62. [wtv @ 01D0B940] unsupported chunk:7966b5e0b912cc43b7df578caa5a7b63
  63. [mpeg2video @ 01C28CC0] mpeg_decode_postinit() failure
  64. [wtv @ 01D0B940] unsupported chunk:839574409d6bec4eb43c67a1801e1a9b
  65.     Last message repeated 5 times
  66. [wtv @ 01D0B940] unsupported chunk:7966b5e0b912cc43b7df578caa5a7b63
  67. [mpeg2video @ 01C28CC0] mpeg_decode_postinit() failure
  68. [wtv @ 01D0B940] unsupported chunk:839574409d6bec4eb43c67a1801e1a9b
  69.     Last message repeated 4 times
  70. [aac @ 01BD0EE0] channel element 2.4 is not allocated
  71. [wtv @ 01D0B940] unsupported chunk:7966b5e0b912cc43b7df578caa5a7b63
  72. [wtv @ 01D0B940] unsupported chunk:839574409d6bec4eb43c67a1801e1a9b
  73.     Last message repeated 2 times
  74. [wtv @ 01D0B940] unsupported chunk:7966b5e0b912cc43b7df578caa5a7b63
  75. [wtv @ 01D0B940] unsupported chunk:839574409d6bec4eb43c67a1801e1a9b
  76.     Last message repeated 2 times
  77. [aac @ 01C286A0] Sample rate index in program config element does not match the sample rate index configured by the container.
  78. [aac @ 01C286A0] Not evaluating a further program_config_element as this construct is dubious at best.
  79. [aac @ 01C286A0] ms_present = 3 is reserved.
  80. [wtv @ 01D0B940] unsupported chunk:7966b5e0b912cc43b7df578caa5a7b63
  81. [wtv @ 01D0B940] unsupported chunk:839574409d6bec4eb43c67a1801e1a9b
  82.     Last message repeated 6 times
  83. [wtv @ 01D0B940] unsupported chunk:7966b5e0b912cc43b7df578caa5a7b63
  84. [wtv @ 01D0B940] unsupported chunk:839574409d6bec4eb43c67a1801e1a9b
  85. [mpeg2video @ 01C28CC0] mpeg_decode_postinit() failure
  86. [wtv @ 01D0B940] unsupported chunk:839574409d6bec4eb43c67a1801e1a9b
  87.     Last message repeated 5 times
  88. [wtv @ 01D0B940] unsupported chunk:7966b5e0b912cc43b7df578caa5a7b63
  89. [mpeg2video @ 01C28CC0] mpeg_decode_postinit() failure
  90. [wtv @ 01D0B940] unsupported chunk:839574409d6bec4eb43c67a1801e1a9b
  91.     Last message repeated 4 times
  92. [aac @ 01BD0EE0] More than one AAC RDB per ADTS frame is not implemented. Update your FFmpeg version to the newest one from Git. If the problem still occurs, it means that your file has a feature which has not been implemented.
  93. [aac @ 01BD0EE0] Error decoding AAC frame header.
  94. [wtv @ 01D0B940] unsupported chunk:839574409d6bec4eb43c67a1801e1a9b
  95. [wtv @ 01D0B940] unsupported chunk:7966b5e0b912cc43b7df578caa5a7b63
  96.     Last message repeated 1 times
  97. [aac @ 01BD0EE0] channel element 2.12 is not allocated
  98. [mpeg2video @ 01C28CC0] mpeg_decode_postinit() failure
  99. [wtv @ 01D0B940] unsupported chunk:839574409d6bec4eb43c67a1801e1a9b
  100.     Last message repeated 6 times
  101. [wtv @ 01D0B940] unsupported chunk:7966b5e0b912cc43b7df578caa5a7b63
  102. [wtv @ 01D0B940] unsupported chunk:839574409d6bec4eb43c67a1801e1a9b
  103.     Last message repeated 8 times
  104. [aac @ 01BD0EE0] Number of bands (60) exceeds limit (46).
  105. [wtv @ 01D0B940] unsupported chunk:839574409d6bec4eb43c67a1801e1a9b
  106. [wtv @ 01D0B940] unsupported chunk:7966b5e0b912cc43b7df578caa5a7b63
  107. [wtv @ 01D0B940] unsupported chunk:839574409d6bec4eb43c67a1801e1a9b
  108.     Last message repeated 2 times
  109. [wtv @ 01D0B940] unsupported chunk:7966b5e0b912cc43b7df578caa5a7b63
  110. [wtv @ 01D0B940] unsupported chunk:839574409d6bec4eb43c67a1801e1a9b
  111.     Last message repeated 2 times
  112. [aac @ 01BD0EE0] channel element 0.4 is not allocated
  113. [wtv @ 01D0B940] unsupported chunk:7966b5e0b912cc43b7df578caa5a7b63
  114. [mpeg2video @ 01C28CC0] mpeg_decode_postinit() failure
  115. [wtv @ 01D0B940] unsupported chunk:839574409d6bec4eb43c67a1801e1a9b
  116.     Last message repeated 4 times
  117. [wtv @ 01D0B940] unsupported chunk:7966b5e0b912cc43b7df578caa5a7b63
  118. [mpeg2video @ 01C28CC0] mpeg_decode_postinit() failure
  119. [wtv @ 01D0B940] unsupported chunk:839574409d6bec4eb43c67a1801e1a9b
  120.     Last message repeated 1 times
  121. [aac @ 01BD0EE0] invalid band type
  122. [wtv @ 01D0B940] unsupported chunk:7966b5e0b912cc43b7df578caa5a7b63
  123. [wtv @ 01D0B940] unsupported chunk:839574409d6bec4eb43c67a1801e1a9b
  124.     Last message repeated 4 times
  125. [wtv @ 01D0B940] unsupported chunk:7966b5e0b912cc43b7df578caa5a7b63
  126. [mpeg2video @ 01C28CC0] mpeg_decode_postinit() failure
  127. [wtv @ 01D0B940] unsupported chunk:839574409d6bec4eb43c67a1801e1a9b
  128.     Last message repeated 2 times
  129. [wtv @ 01D0B940] unsupported chunk:7966b5e0b912cc43b7df578caa5a7b63
  130. [wtv @ 01D0B940] unsupported chunk:839574409d6bec4eb43c67a1801e1a9b
  131.     Last message repeated 16 times
  132. [wtv @ 01D0B940] unsupported chunk:7966b5e0b912cc43b7df578caa5a7b63
  133. [mpeg2video @ 01C28CC0] mpeg_decode_postinit() failure
  134. [wtv @ 01D0B940] unsupported chunk:839574409d6bec4eb43c67a1801e1a9b
  135.     Last message repeated 1 times
  136. [wtv @ 01D0B940] unsupported chunk:7966b5e0b912cc43b7df578caa5a7b63
  137. [wtv @ 01D0B940] unsupported chunk:839574409d6bec4eb43c67a1801e1a9b
  138.     Last message repeated 3 times
  139. [aac @ 01BD0EE0] channel element 2.7 is not allocated
  140. [wtv @ 01D0B940] unsupported chunk:839574409d6bec4eb43c67a1801e1a9b
  141.     Last message repeated 3 times
  142. [wtv @ 01D0B940] unsupported chunk:7966b5e0b912cc43b7df578caa5a7b63
  143. [mpeg2video @ 01C28CC0] mpeg_decode_postinit() failure
  144. [wtv @ 01D0B940] unsupported chunk:839574409d6bec4eb43c67a1801e1a9b
  145. [aac @ 01C286A0] More than one AAC RDB per ADTS frame is not implemented. Update your FFmpeg version to the newest one from Git. If the problem still occurs, it means that your file has a feature which has not been implemented.
  146. [aac @ 01C286A0] Error decoding AAC frame header.
  147. [wtv @ 01D0B940] unsupported chunk:7966b5e0b912cc43b7df578caa5a7b63
  148. [aac @ 01C286A0] channel element 3.1 is not allocated
  149. [wtv @ 01D0B940] unsupported chunk:839574409d6bec4eb43c67a1801e1a9b
  150.     Last message repeated 4 times
  151. [wtv @ 01D0B940] unsupported chunk:7966b5e0b912cc43b7df578caa5a7b63
  152. [mpeg2video @ 01C28CC0] mpeg_decode_postinit() failure
  153. [wtv @ 01D0B940] unsupported chunk:7966b5e0b912cc43b7df578caa5a7b63
  154. [wtv @ 01D0B940] unsupported chunk:839574409d6bec4eb43c67a1801e1a9b
  155.     Last message repeated 15 times
  156. [aac @ 01BD0EE0] Number of bands (50) exceeds limit (46).
  157. [wtv @ 01D0B940] unsupported chunk:839574409d6bec4eb43c67a1801e1a9b
  158. [wtv @ 01D0B940] unsupported chunk:7966b5e0b912cc43b7df578caa5a7b63
  159. [wtv @ 01D0B940] unsupported chunk:839574409d6bec4eb43c67a1801e1a9b
  160.     Last message repeated 6 times
  161. [aac @ 01C286A0] Number of bands (95) exceeds limit (46).
  162. [aac @ 01C286A0] channel element 0.3 is not allocated
  163. [wtv @ 01D0B940] unsupported chunk:7966b5e0b912cc43b7df578caa5a7b63
  164. [wtv @ 01D0B940] unsupported chunk:839574409d6bec4eb43c67a1801e1a9b
  165.     Last message repeated 11 times
  166. [wtv @ 01D0B940] unsupported chunk:7966b5e0b912cc43b7df578caa5a7b63
  167. [mpeg2video @ 01C28CC0] ac-tex damaged at 5 0
  168. [mpeg2video @ 01C28CC0] Warning MVs not available
  169. [mpeg2video @ 01C28CC0] concealing 6120 DC, 6120 AC, 6120 MV errors
  170. [wtv @ 01D0B940] unsupported chunk:839574409d6bec4eb43c67a1801e1a9b
  171.     Last message repeated 3 times
  172. [wtv @ 01D0B940] unsupported chunk:7966b5e0b912cc43b7df578caa5a7b63
  173. [wtv @ 01D0B940] unsupported chunk:839574409d6bec4eb43c67a1801e1a9b
  174. [wtv @ 01D0B940] unsupported chunk:7966b5e0b912cc43b7df578caa5a7b63
  175. [wtv @ 01D0B940] unsupported chunk:839574409d6bec4eb43c67a1801e1a9b
  176.     Last message repeated 4 times
  177. [aac @ 01BD0EE0] Number of bands (25) exceeds limit (24).
  178. [wtv @ 01D0B940] unsupported chunk:839574409d6bec4eb43c67a1801e1a9b
  179. [wtv @ 01D0B940] unsupported chunk:7966b5e0b912cc43b7df578caa5a7b63
  180. [wtv @ 01D0B940] unsupported chunk:839574409d6bec4eb43c67a1801e1a9b
  181.     Last message repeated 3 times
  182. [aac @ 01C286A0] More than one AAC RDB per ADTS frame is not implemented. Update your FFmpeg version to the newest one from Git. If the problem still occurs, it means that your file has a feature which has not been implemented.
  183. [aac @ 01C286A0] Error decoding AAC frame header.
  184. [wtv @ 01D0B940] unsupported chunk:839574409d6bec4eb43c67a1801e1a9b
  185. [wtv @ 01D0B940] unsupported chunk:7966b5e0b912cc43b7df578caa5a7b63
  186. [wtv @ 01D0B940] unsupported chunk:839574409d6bec4eb43c67a1801e1a9b
  187.     Last message repeated 12 times
  188. [wtv @ 01D0B940] unsupported chunk:ae31d8ea29551f4dafce0d8cd1257d30
  189. [wtv @ 01D0B940] unsupported chunk:839574409d6bec4eb43c67a1801e1a9b
  190.     Last message repeated 1 times
  191. [wtv @ 01D0B940] unsupported chunk:7966b5e0b912cc43b7df578caa5a7b63
  192. [wtv @ 01D0B940] unsupported chunk:839574409d6bec4eb43c67a1801e1a9b
  193.     Last message repeated 1 times
  194. [wtv @ 01D0B940] unsupported chunk:7966b5e0b912cc43b7df578caa5a7b63
  195. [wtv @ 01D0B940] unsupported chunk:839574409d6bec4eb43c67a1801e1a9b
  196.     Last message repeated 2 times
  197. [aac @ 01BD0EE0] Number of bands (59) exceeds limit (46).
  198. [aac @ 01BD0EE0] channel element 2.6 is not allocated
  199. [wtv @ 01D0B940] unsupported chunk:839574409d6bec4eb43c67a1801e1a9b
  200. [wtv @ 01D0B940] unsupported chunk:7966b5e0b912cc43b7df578caa5a7b63
  201. [wtv @ 01D0B940] unsupported chunk:839574409d6bec4eb43c67a1801e1a9b
  202. [wtv @ 01D0B940] unsupported chunk:7966b5e0b912cc43b7df578caa5a7b63
  203. [wtv @ 01D0B940] unsupported chunk:839574409d6bec4eb43c67a1801e1a9b
  204.     Last message repeated 6 times
  205. [wtv @ 01D0B940] unsupported chunk:7966b5e0b912cc43b7df578caa5a7b63
  206. [wtv @ 01D0B940] unsupported chunk:839574409d6bec4eb43c67a1801e1a9b
  207.     Last message repeated 2 times
  208. [wtv @ 01D0B940] unsupported chunk:7966b5e0b912cc43b7df578caa5a7b63
  209. [wtv @ 01D0B940] unsupported chunk:839574409d6bec4eb43c67a1801e1a9b
  210.     Last message repeated 23 times
  211. [aac @ 01BD0EE0] More than one AAC RDB per ADTS frame is not implemented. Update your FFmpeg version to the newest one from Git. If the problem still occurs, it means that your file has a feature which has not been implemented.
  212. [aac @ 01BD0EE0] Error decoding AAC frame header.
  213. [wtv @ 01D0B940] unsupported chunk:7966b5e0b912cc43b7df578caa5a7b63
  214.     Last message repeated 1 times
  215. [wtv @ 01D0B940] unsupported chunk:839574409d6bec4eb43c67a1801e1a9b
  216.     Last message repeated 5 times
  217. [wtv @ 01D0B940] unsupported chunk:7966b5e0b912cc43b7df578caa5a7b63
  218. [wtv @ 01D0B940] unsupported chunk:839574409d6bec4eb43c67a1801e1a9b
  219.     Last message repeated 2 times
  220. [wtv @ 01D0B940] unsupported chunk:7966b5e0b912cc43b7df578caa5a7b63
  221. [wtv @ 01D0B940] unsupported chunk:839574409d6bec4eb43c67a1801e1a9b
  222.     Last message repeated 7 times
  223. [wtv @ 01D0B940] unsupported chunk:7966b5e0b912cc43b7df578caa5a7b63
  224. [wtv @ 01D0B940] unsupported chunk:839574409d6bec4eb43c67a1801e1a9b
  225.     Last message repeated 16 times
  226. [aac @ 01BD0EE0] Sample rate index in program config element does not match the sample rate index configured by the container.
  227. [aac @ 01BD0EE0] Not evaluating a further program_config_element as this construct is dubious at best.
  228. [aac @ 01BD0EE0] channel element 1.13 is not allocated
  229. [wtv @ 01D0B940] unsupported chunk:839574409d6bec4eb43c67a1801e1a9b
  230. [wtv @ 01D0B940] unsupported chunk:7966b5e0b912cc43b7df578caa5a7b63
  231. [wtv @ 01D0B940] unsupported chunk:839574409d6bec4eb43c67a1801e1a9b
  232.     Last message repeated 2 times
  233. [wtv @ 01D0B940] unsupported chunk:7966b5e0b912cc43b7df578caa5a7b63
  234. [wtv @ 01D0B940] unsupported chunk:839574409d6bec4eb43c67a1801e1a9b
  235.     Last message repeated 3 times
  236. [aac @ 01C286A0] Number of bands (54) exceeds limit (46).
  237. [wtv @ 01D0B940] unsupported chunk:7966b5e0b912cc43b7df578caa5a7b63
  238. [wtv @ 01D0B940] unsupported chunk:839574409d6bec4eb43c67a1801e1a9b
  239.     Last message repeated 3 times
  240. [wtv @ 01D0B940] unsupported chunk:7966b5e0b912cc43b7df578caa5a7b63
  241. [wtv @ 01D0B940] unsupported chunk:839574409d6bec4eb43c67a1801e1a9b
  242.     Last message repeated 5 times
  243. [wtv @ 01D0B940] unsupported chunk:7966b5e0b912cc43b7df578caa5a7b63
  244. [wtv @ 01D0B940] unsupported chunk:839574409d6bec4eb43c67a1801e1a9b
  245.     Last message repeated 11 times
  246. [wtv @ 01D0B940] unsupported chunk:7966b5e0b912cc43b7df578caa5a7b63
  247. [wtv @ 01D0B940] unsupported chunk:839574409d6bec4eb43c67a1801e1a9b
  248.     Last message repeated 4 times
  249. [wtv @ 01D0B940] unsupported chunk:7966b5e0b912cc43b7df578caa5a7b63
  250. [wtv @ 01D0B940] unsupported chunk:839574409d6bec4eb43c67a1801e1a9b
  251.     Last message repeated 1 times
  252. [wtv @ 01D0B940] unsupported chunk:7966b5e0b912cc43b7df578caa5a7b63
  253. [wtv @ 01D0B940] unsupported chunk:839574409d6bec4eb43c67a1801e1a9b
  254.     Last message repeated 7 times
  255. [wtv @ 01D0B940] unsupported chunk:7966b5e0b912cc43b7df578caa5a7b63
  256. [wtv @ 01D0B940] unsupported chunk:839574409d6bec4eb43c67a1801e1a9b
  257.     Last message repeated 5 times
  258. [wtv @ 01D0B940] unsupported chunk:7966b5e0b912cc43b7df578caa5a7b63
  259.     Last message repeated 1 times
  260. [wtv @ 01D0B940] unsupported chunk:839574409d6bec4eb43c67a1801e1a9b
  261.     Last message repeated 3 times
  262. [wtv @ 01D0B940] unsupported chunk:7966b5e0b912cc43b7df578caa5a7b63
  263. [wtv @ 01D0B940] unsupported chunk:839574409d6bec4eb43c67a1801e1a9b
  264.     Last message repeated 11 times
  265. [wtv @ 01D0B940] unsupported chunk:7966b5e0b912cc43b7df578caa5a7b63
  266. [wtv @ 01D0B940] unsupported chunk:839574409d6bec4eb43c67a1801e1a9b
  267.     Last message repeated 15 times
  268. [aac @ 01BD0EE0] Prediction is not allowed in AAC-LC.
  269. [wtv @ 01D0B940] unsupported chunk:839574409d6bec4eb43c67a1801e1a9b
  270.     Last message repeated 1 times
  271. [wtv @ 01D0B940] unsupported chunk:7966b5e0b912cc43b7df578caa5a7b63
  272. [wtv @ 01D0B940] unsupported chunk:839574409d6bec4eb43c67a1801e1a9b
  273.     Last message repeated 3 times
  274. [wtv @ 01D0B940] unsupported chunk:7966b5e0b912cc43b7df578caa5a7b63
  275. [wtv @ 01D0B940] unsupported chunk:839574409d6bec4eb43c67a1801e1a9b
  276. [aac @ 01C286A0] Number of bands (65) exceeds limit (46).
  277. [wtv @ 01D0B940] unsupported chunk:839574409d6bec4eb43c67a1801e1a9b
  278. [wtv @ 01D0B940] unsupported chunk:7966b5e0b912cc43b7df578caa5a7b63
  279. [wtv @ 01D0B940] unsupported chunk:839574409d6bec4eb43c67a1801e1a9b
  280.     Last message repeated 4 times
  281. [wtv @ 01D0B940] unsupported chunk:7966b5e0b912cc43b7df578caa5a7b63
  282. [wtv @ 01D0B940] unsupported chunk:839574409d6bec4eb43c67a1801e1a9b
  283.     Last message repeated 7 times
  284. [wtv @ 01D0B940] unsupported chunk:7966b5e0b912cc43b7df578caa5a7b63
  285. [wtv @ 01D0B940] unsupported chunk:839574409d6bec4eb43c67a1801e1a9b
  286.     Last message repeated 7 times
  287. [wtv @ 01D0B940] unsupported chunk:7966b5e0b912cc43b7df578caa5a7b63
  288. [wtv @ 01D0B940] unsupported chunk:839574409d6bec4eb43c67a1801e1a9b
  289.     Last message repeated 1 times
  290. [aac @ 01BD0EE0] channel element 2.10 is not allocated
  291. [wtv @ 01D0B940] unsupported chunk:839574409d6bec4eb43c67a1801e1a9b
  292.     Last message repeated 5 times
  293. [wtv @ 01D0B940] unsupported chunk:7966b5e0b912cc43b7df578caa5a7b63
  294. [wtv @ 01D0B940] unsupported chunk:839574409d6bec4eb43c67a1801e1a9b
  295. [wtv @ 01D0B940] unsupported chunk:7966b5e0b912cc43b7df578caa5a7b63
  296. [aac @ 01C286A0] channel element 3.0 is not allocated
  297. [wtv @ 01D0B940] unsupported chunk:839574409d6bec4eb43c67a1801e1a9b
  298.     Last message repeated 4 times
  299. [wtv @ 01D0B940] unsupported chunk:7966b5e0b912cc43b7df578caa5a7b63
  300. [wtv @ 01D0B940] unsupported chunk:839574409d6bec4eb43c67a1801e1a9b
  301.     Last message repeated 3 times
  302. [wtv @ 01D0B940] unsupported chunk:7966b5e0b912cc43b7df578caa5a7b63
  303. [wtv @ 01D0B940] unsupported chunk:839574409d6bec4eb43c67a1801e1a9b
  304.     Last message repeated 9 times
  305. [aac @ 01BD0EE0] invalid band type
  306. [wtv @ 01D0B940] unsupported chunk:7966b5e0b912cc43b7df578caa5a7b63
  307. [wtv @ 01D0B940] unsupported chunk:839574409d6bec4eb43c67a1801e1a9b
  308.     Last message repeated 10 times
  309. [aac @ 01C286A0] Number of bands (58) exceeds limit (46).
  310. [wtv @ 01D0B940] unsupported chunk:839574409d6bec4eb43c67a1801e1a9b
  311. [wtv @ 01D0B940] unsupported chunk:7966b5e0b912cc43b7df578caa5a7b63
  312. [wtv @ 01D0B940] unsupported chunk:839574409d6bec4eb43c67a1801e1a9b
  313. [wtv @ 01D0B940] unsupported chunk:7966b5e0b912cc43b7df578caa5a7b63
  314. [wtv @ 01D0B940] unsupported chunk:839574409d6bec4eb43c67a1801e1a9b
  315.     Last message repeated 4 times
  316. [wtv @ 01D0B940] unsupported chunk:7966b5e0b912cc43b7df578caa5a7b63
  317. [wtv @ 01D0B940] unsupported chunk:839574409d6bec4eb43c67a1801e1a9b
  318.     Last message repeated 5 times
  319. [wtv @ 01D0B940] unsupported chunk:7966b5e0b912cc43b7df578caa5a7b63
  320. [wtv @ 01D0B940] unsupported chunk:839574409d6bec4eb43c67a1801e1a9b
  321.     Last message repeated 4 times
  322. [wtv @ 01D0B940] unsupported chunk:7966b5e0b912cc43b7df578caa5a7b63
  323. [wtv @ 01D0B940] unsupported chunk:839574409d6bec4eb43c67a1801e1a9b
  324.     Last message repeated 2 times
  325. [wtv @ 01D0B940] unsupported chunk:7966b5e0b912cc43b7df578caa5a7b63
  326. [wtv @ 01D0B940] unsupported chunk:839574409d6bec4eb43c67a1801e1a9b
  327. [aac @ 01BD0EE0] channel element 0.7 is not allocated
  328. [wtv @ 01D0B940] unsupported chunk:839574409d6bec4eb43c67a1801e1a9b
  329.     Last message repeated 6 times
  330. [wtv @ 01D0B940] unsupported chunk:7966b5e0b912cc43b7df578caa5a7b63
  331. [wtv @ 01D0B940] unsupported chunk:839574409d6bec4eb43c67a1801e1a9b
  332. [aac @ 01C286A0] channel element 2.13 is not allocated
  333. [wtv @ 01D0B940] unsupported chunk:839574409d6bec4eb43c67a1801e1a9b
  334.     Last message repeated 16 times
  335. [wtv @ 01D0B940] unsupported chunk:7966b5e0b912cc43b7df578caa5a7b63
  336. [wtv @ 01D0B940] unsupported chunk:839574409d6bec4eb43c67a1801e1a9b
  337. [aac @ 01BD0EE0] invalid band type
  338. [wtv @ 01D0B940] unsupported chunk:7966b5e0b912cc43b7df578caa5a7b63
  339. [wtv @ 01D0B940] unsupported chunk:839574409d6bec4eb43c67a1801e1a9b
  340.     Last message repeated 3 times
  341. [wtv @ 01D0B940] unsupported chunk:7966b5e0b912cc43b7df578caa5a7b63
  342. [wtv @ 01D0B940] unsupported chunk:839574409d6bec4eb43c67a1801e1a9b
  343.     Last message repeated 2 times
  344. [aac @ 01C286A0] Number of bands (68) exceeds limit (46).
  345. [wtv @ 01D0B940] unsupported chunk:839574409d6bec4eb43c67a1801e1a9b
  346. [wtv @ 01D0B940] unsupported chunk:7966b5e0b912cc43b7df578caa5a7b63
  347. [wtv @ 01D0B940] unsupported chunk:839574409d6bec4eb43c67a1801e1a9b
  348. [wtv @ 01D0B940] unsupported chunk:7966b5e0b912cc43b7df578caa5a7b63
  349.     Last message repeated 1 times
  350. [wtv @ 01D0B940] unsupported chunk:839574409d6bec4eb43c67a1801e1a9b
  351.     Last message repeated 18 times
  352. [wtv @ 01D0B940] unsupported chunk:7966b5e0b912cc43b7df578caa5a7b63
  353. [aac @ 01BD0EE0] channel element 3.11 is not allocated
  354. [wtv @ 01D0B940] unsupported chunk:839574409d6bec4eb43c67a1801e1a9b
  355.     Last message repeated 6 times
  356. [wtv @ 01D0B940] unsupported chunk:7966b5e0b912cc43b7df578caa5a7b63
  357. [wtv @ 01D0B940] unsupported chunk:839574409d6bec4eb43c67a1801e1a9b
  358.     Last message repeated 3 times
  359. [wtv @ 01D0B940] unsupported chunk:7966b5e0b912cc43b7df578caa5a7b63
  360. [aac @ 01C286A0] Sample rate index in program config element does not match the sample rate index configured by the container.
  361. [aac @ 01C286A0] Not evaluating a further program_config_element as this construct is dubious at best.
  362. [aac @ 01C286A0] channel element 2.13 is not allocated
  363. [wtv @ 01D0B940] unsupported chunk:839574409d6bec4eb43c67a1801e1a9b
  364.     Last message repeated 4 times
  365. [wtv @ 01D0B940] unsupported chunk:7966b5e0b912cc43b7df578caa5a7b63
  366. [wtv @ 01D0B940] unsupported chunk:839574409d6bec4eb43c67a1801e1a9b
  367.     Last message repeated 4 times
  368. [wtv @ 01D0B940] unsupported chunk:7966b5e0b912cc43b7df578caa5a7b63
  369. [wtv @ 01D0B940] unsupported chunk:839574409d6bec4eb43c67a1801e1a9b
  370.     Last message repeated 6 times
  371. [aac @ 01BD0EE0] Number of bands (57) exceeds limit (46).
  372. [wtv @ 01D0B940] unsupported chunk:7966b5e0b912cc43b7df578caa5a7b63
  373. [wtv @ 01D0B940] unsupported chunk:839574409d6bec4eb43c67a1801e1a9b
  374.     Last message repeated 8 times
  375. [wtv @ 01D0B940] unsupported chunk:7966b5e0b912cc43b7df578caa5a7b63
  376. [wtv @ 01D0B940] unsupported chunk:839574409d6bec4eb43c67a1801e1a9b
  377.     Last message repeated 2 times
  378. [aac @ 01C286A0] invalid band type
  379. [wtv @ 01D0B940] unsupported chunk:7966b5e0b912cc43b7df578caa5a7b63
  380. [wtv @ 01D0B940] unsupported chunk:839574409d6bec4eb43c67a1801e1a9b
  381.     Last message repeated 3 times
  382. [wtv @ 01D0B940] unsupported chunk:7966b5e0b912cc43b7df578caa5a7b63
  383. [wtv @ 01D0B940] unsupported chunk:839574409d6bec4eb43c67a1801e1a9b
  384.     Last message repeated 4 times
  385. [wtv @ 01D0B940] unsupported chunk:7966b5e0b912cc43b7df578caa5a7b63
  386. [wtv @ 01D0B940] unsupported chunk:839574409d6bec4eb43c67a1801e1a9b
  387.     Last message repeated 4 times
  388. [wtv @ 01D0B940] unsupported chunk:7966b5e0b912cc43b7df578caa5a7b63
  389. [wtv @ 01D0B940] unsupported chunk:839574409d6bec4eb43c67a1801e1a9b
  390. [wtv @ 01D0B940] unsupported chunk:7966b5e0b912cc43b7df578caa5a7b63
  391. [wtv @ 01D0B940] unsupported chunk:839574409d6bec4eb43c67a1801e1a9b
  392. [aac @ 01C286A0] channel element 3.2 is not allocated
  393. [wtv @ 01D0B940] unsupported chunk:839574409d6bec4eb43c67a1801e1a9b
  394.     Last message repeated 1 times
  395. [aac @ 01BD0EE0] Reserved bit set.
  396. [wtv @ 01D0B940] unsupported chunk:839574409d6bec4eb43c67a1801e1a9b
  397. [wtv @ 01D0B940] unsupported chunk:7966b5e0b912cc43b7df578caa5a7b63
  398. [wtv @ 01D0B940] unsupported chunk:839574409d6bec4eb43c67a1801e1a9b
  399.     Last message repeated 8 times
  400. [wtv @ 01D0B940] unsupported chunk:7966b5e0b912cc43b7df578caa5a7b63
  401. [wtv @ 01D0B940] unsupported chunk:839574409d6bec4eb43c67a1801e1a9b
  402.     Last message repeated 2 times
  403. [aac @ 01BD0EE0] TNS filter order 27 is greater than maximum 12.
  404. [wtv @ 01D0B940] unsupported chunk:839574409d6bec4eb43c67a1801e1a9b
  405. [wtv @ 01D0B940] unsupported chunk:7966b5e0b912cc43b7df578caa5a7b63
  406.     Last message repeated 2 times
  407. [aac @ 01BD0EE0] channel element 0.14 is not allocated
  408. [wtv @ 01D0B940] unsupported chunk:839574409d6bec4eb43c67a1801e1a9b
  409.     Last message repeated 7 times
  410. [wtv @ 01D0B940] unsupported chunk:7966b5e0b912cc43b7df578caa5a7b63
  411. [wtv @ 01D0B940] unsupported chunk:839574409d6bec4eb43c67a1801e1a9b
  412.     Last message repeated 4 times
  413. [wtv @ 01D0B940] unsupported chunk:7966b5e0b912cc43b7df578caa5a7b63
  414. [wtv @ 01D0B940] unsupported chunk:839574409d6bec4eb43c67a1801e1a9b
  415.     Last message repeated 1 times
  416. [aac @ 01BD0EE0] Input buffer exhausted before END element found
  417. [wtv @ 01D0B940] unsupported chunk:839574409d6bec4eb43c67a1801e1a9b
  418. [wtv @ 01D0B940] unsupported chunk:7966b5e0b912cc43b7df578caa5a7b63
  419. [wtv @ 01D0B940] unsupported chunk:839574409d6bec4eb43c67a1801e1a9b
  420. [aac @ 01BD0EE0] channel element 0.15 is not allocated
  421. [wtv @ 01D0B940] unsupported chunk:839574409d6bec4eb43c67a1801e1a9b
  422.     Last message repeated 4 times
  423. [wtv @ 01D0B940] unsupported chunk:7966b5e0b912cc43b7df578caa5a7b63
  424. [wtv @ 01D0B940] unsupported chunk:839574409d6bec4eb43c67a1801e1a9b
  425.     Last message repeated 11 times
  426. [wtv @ 01D0B940] unsupported chunk:7966b5e0b912cc43b7df578caa5a7b63
  427. [wtv @ 01D0B940] unsupported chunk:839574409d6bec4eb43c67a1801e1a9b
  428.     Last message repeated 8 times
  429. [wtv @ 01D0B940] unsupported chunk:7966b5e0b912cc43b7df578caa5a7b63
  430. [wtv @ 01D0B940] unsupported chunk:839574409d6bec4eb43c67a1801e1a9b
  431.     Last message repeated 2 times
  432. [aac @ 01BD0EE0] Number of bands (72) exceeds limit (46).
  433. [aac @ 01BD0EE0] Sample rate index in program config element does not match the sample rate index configured by the container.
  434. [aac @ 01BD0EE0] Not evaluating a further program_config_element as this construct is dubious at best.
  435. [aac @ 01BD0EE0] channel element 3.0 is not allocated
  436. [wtv @ 01D0B940] unsupported chunk:7966b5e0b912cc43b7df578caa5a7b63
  437. [wtv @ 01D0B940] unsupported chunk:839574409d6bec4eb43c67a1801e1a9b
  438.     Last message repeated 7 times
  439. [wtv @ 01D0B940] unsupported chunk:7966b5e0b912cc43b7df578caa5a7b63
  440. [wtv @ 01D0B940] unsupported chunk:839574409d6bec4eb43c67a1801e1a9b
  441.     Last message repeated 2 times
  442. [aac @ 01C286A0] More than one AAC RDB per ADTS frame is not implemented. Update your FFmpeg version to the newest one from Git. If the problem still occurs, it means that your file has a feature which has not been implemented.
  443. [aac @ 01C286A0] Error decoding AAC frame header.
  444. [wtv @ 01D0B940] unsupported chunk:7966b5e0b912cc43b7df578caa5a7b63
  445. [wtv @ 01D0B940] unsupported chunk:839574409d6bec4eb43c67a1801e1a9b
  446.     Last message repeated 17 times
  447. [wtv @ 01D0B940] unsupported chunk:7966b5e0b912cc43b7df578caa5a7b63
  448. [wtv @ 01D0B940] unsupported chunk:839574409d6bec4eb43c67a1801e1a9b
  449.     Last message repeated 1 times
  450. [wtv @ 01D0B940] unsupported chunk:7966b5e0b912cc43b7df578caa5a7b63
  451. [wtv @ 01D0B940] unsupported chunk:839574409d6bec4eb43c67a1801e1a9b
  452.     Last message repeated 4 times
  453. [wtv @ 01D0B940] unsupported chunk:7966b5e0b912cc43b7df578caa5a7b63
  454. [wtv @ 01D0B940] unsupported chunk:839574409d6bec4eb43c67a1801e1a9b
  455.     Last message repeated 3 times
  456. [wtv @ 01D0B940] unsupported chunk:7966b5e0b912cc43b7df578caa5a7b63
  457. [wtv @ 01D0B940] unsupported chunk:839574409d6bec4eb43c67a1801e1a9b
  458.     Last message repeated 2 times
  459. [wtv @ 01D0B940] unsupported chunk:7966b5e0b912cc43b7df578caa5a7b63
  460.     Last message repeated 1 times
  461. [wtv @ 01D0B940] unsupported chunk:839574409d6bec4eb43c67a1801e1a9b
  462.     Last message repeated 14 times
  463. [aac @ 01BD0EE0] More than one AAC RDB per ADTS frame is not implemented. Update your FFmpeg version to the newest one from Git. If the problem still occurs, it means that your file has a feature which has not been implemented.
  464. [aac @ 01BD0EE0] Error decoding AAC frame header.
  465. [wtv @ 01D0B940] unsupported chunk:7966b5e0b912cc43b7df578caa5a7b63
  466. [wtv @ 01D0B940] unsupported chunk:839574409d6bec4eb43c67a1801e1a9b
  467.     Last message repeated 7 times
  468. [aac @ 01C286A0] Number of bands (51) exceeds limit (46).
  469. [wtv @ 01D0B940] unsupported chunk:839574409d6bec4eb43c67a1801e1a9b
  470. [wtv @ 01D0B940] unsupported chunk:7966b5e0b912cc43b7df578caa5a7b63
  471. [wtv @ 01D0B940] unsupported chunk:839574409d6bec4eb43c67a1801e1a9b
  472.     Last message repeated 11 times
  473. [wtv @ 01D0B940] unsupported chunk:7966b5e0b912cc43b7df578caa5a7b63
  474. [wtv @ 01D0B940] unsupported chunk:839574409d6bec4eb43c67a1801e1a9b
  475.     Last message repeated 4 times
  476. [wtv @ 01D0B940] unsupported chunk:7966b5e0b912cc43b7df578caa5a7b63
  477. [wtv @ 01D0B940] unsupported chunk:839574409d6bec4eb43c67a1801e1a9b
  478. [wtv @ 01D0B940] unsupported chunk:7966b5e0b912cc43b7df578caa5a7b63
  479. [aac @ 01BD0EE0] Sample rate index in program config element does not match the sample rate index configured by the container.
  480. [aac @ 01BD0EE0] Not evaluating a further program_config_element as this construct is dubious at best.
  481. [aac @ 01BD0EE0] Reserved bit set.
  482. [wtv @ 01D0B940] unsupported chunk:839574409d6bec4eb43c67a1801e1a9b
  483.     Last message repeated 5 times
  484. [aac @ 01C286A0] channel element 0.9 is not allocated
  485. [wtv @ 01D0B940] unsupported chunk:839574409d6bec4eb43c67a1801e1a9b
  486. [wtv @ 01D0B940] unsupported chunk:7966b5e0b912cc43b7df578caa5a7b63
  487. [wtv @ 01D0B940] unsupported chunk:839574409d6bec4eb43c67a1801e1a9b
  488.     Last message repeated 1 times
  489. [wtv @ 01D0B940] unsupported chunk:7966b5e0b912cc43b7df578caa5a7b63
  490. [wtv @ 01D0B940] unsupported chunk:839574409d6bec4eb43c67a1801e1a9b
  491.     Last message repeated 17 times
  492. [wtv @ 01D0B940] unsupported chunk:7966b5e0b912cc43b7df578caa5a7b63
  493. [wtv @ 01D0B940] unsupported chunk:839574409d6bec4eb43c67a1801e1a9b
  494.     Last message repeated 1 times
  495. [aac @ 01BD0EE0] TNS filter order 27 is greater than maximum 12.
  496. [wtv @ 01D0B940] unsupported chunk:7966b5e0b912cc43b7df578caa5a7b63
  497. [wtv @ 01D0B940] unsupported chunk:839574409d6bec4eb43c67a1801e1a9b
  498.     Last message repeated 5 times
  499. [wtv @ 01D0B940] unsupported chunk:7966b5e0b912cc43b7df578caa5a7b63
  500. [wtv @ 01D0B940] unsupported chunk:839574409d6bec4eb43c67a1801e1a9b
  501.     Last message repeated 1 times
  502. [wtv @ 01D0B940] unsupported chunk:7966b5e0b912cc43b7df578caa5a7b63
  503. [wtv @ 01D0B940] unsupported chunk:839574409d6bec4eb43c67a1801e1a9b
  504.     Last message repeated 4 times
  505. [wtv @ 01D0B940] unsupported chunk:7966b5e0b912cc43b7df578caa5a7b63
  506. [wtv @ 01D0B940] unsupported chunk:839574409d6bec4eb43c67a1801e1a9b
  507.     Last message repeated 15 times
  508. [aac @ 01BD0EE0] channel element 0.13 is not allocated
  509. [wtv @ 01D0B940] unsupported chunk:839574409d6bec4eb43c67a1801e1a9b
  510. [wtv @ 01D0B940] unsupported chunk:7966b5e0b912cc43b7df578caa5a7b63
  511. [wtv @ 01D0B940] unsupported chunk:839574409d6bec4eb43c67a1801e1a9b
  512.     Last message repeated 2 times
  513. [wtv @ 01D0B940] unsupported chunk:7966b5e0b912cc43b7df578caa5a7b63
  514. [wtv @ 01D0B940] unsupported chunk:839574409d6bec4eb43c67a1801e1a9b
  515.     Last message repeated 1 times
  516. [aac @ 01C286A0] channel element 3.6 is not allocated
  517. [wtv @ 01D0B940] unsupported chunk:839574409d6bec4eb43c67a1801e1a9b
  518. [wtv @ 01D0B940] unsupported chunk:7966b5e0b912cc43b7df578caa5a7b63
  519. [wtv @ 01D0B940] unsupported chunk:839574409d6bec4eb43c67a1801e1a9b
  520.     Last message repeated 2 times
  521. [wtv @ 01D0B940] unsupported chunk:7966b5e0b912cc43b7df578caa5a7b63
  522. [wtv @ 01D0B940] unsupported chunk:839574409d6bec4eb43c67a1801e1a9b
  523.     Last message repeated 5 times
  524. [wtv @ 01D0B940] unsupported chunk:7966b5e0b912cc43b7df578caa5a7b63
  525. [wtv @ 01D0B940] unsupported chunk:839574409d6bec4eb43c67a1801e1a9b
  526.     Last message repeated 7 times
  527. [aac @ 01BD0EE0] More than one AAC RDB per ADTS frame is not implemented. Update your FFmpeg version to the newest one from Git. If the problem still occurs, it means that your file has a feature which has not been implemented.
  528. [aac @ 01BD0EE0] Error decoding AAC frame header.
  529. [wtv @ 01D0B940] unsupported chunk:839574409d6bec4eb43c67a1801e1a9b
  530.     Last message repeated 1 times
  531. [wtv @ 01D0B940] unsupported chunk:7966b5e0b912cc43b7df578caa5a7b63
  532. [wtv @ 01D0B940] unsupported chunk:839574409d6bec4eb43c67a1801e1a9b
  533.     Last message repeated 9 times
  534. [wtv @ 01D0B940] unsupported chunk:7966b5e0b912cc43b7df578caa5a7b63
  535. [wtv @ 01D0B940] unsupported chunk:839574409d6bec4eb43c67a1801e1a9b
  536.     Last message repeated 2 times
  537. [wtv @ 01D0B940] unsupported chunk:7966b5e0b912cc43b7df578caa5a7b63
  538. [wtv @ 01D0B940] unsupported chunk:839574409d6bec4eb43c67a1801e1a9b
  539.     Last message repeated 2 times
  540. [wtv @ 01D0B940] unsupported chunk:7966b5e0b912cc43b7df578caa5a7b63
  541. [wtv @ 01D0B940] unsupported chunk:839574409d6bec4eb43c67a1801e1a9b
  542.     Last message repeated 4 times
  543. [wtv @ 01D0B940] unsupported chunk:7966b5e0b912cc43b7df578caa5a7b63
  544. [wtv @ 01D0B940] unsupported chunk:839574409d6bec4eb43c67a1801e1a9b
  545.     Last message repeated 4 times
  546. [wtv @ 01D0B940] unsupported chunk:7966b5e0b912cc43b7df578caa5a7b63
  547. [wtv @ 01D0B940] unsupported chunk:839574409d6bec4eb43c67a1801e1a9b
  548. [aac @ 01BD0EE0] More than one AAC RDB per ADTS frame is not implemented. Update your FFmpeg version to the newest one from Git. If the problem still occurs, it means that your file has a feature which has not been implemented.
  549. [aac @ 01BD0EE0] Error decoding AAC frame header.
  550. [wtv @ 01D0B940] unsupported chunk:839574409d6bec4eb43c67a1801e1a9b
  551. [wtv @ 01D0B940] unsupported chunk:7966b5e0b912cc43b7df578caa5a7b63
  552. [wtv @ 01D0B940] unsupported chunk:839574409d6bec4eb43c67a1801e1a9b
  553.     Last message repeated 7 times
  554. [wtv @ 01D0B940] unsupported chunk:7966b5e0b912cc43b7df578caa5a7b63
  555. [wtv @ 01D0B940] unsupported chunk:839574409d6bec4eb43c67a1801e1a9b
  556.     Last message repeated 11 times
  557. [wtv @ 01D0B940] unsupported chunk:7966b5e0b912cc43b7df578caa5a7b63
  558. [wtv @ 01D0B940] unsupported chunk:839574409d6bec4eb43c67a1801e1a9b
  559.     Last message repeated 4 times
  560. [wtv @ 01D0B940] unsupported chunk:7966b5e0b912cc43b7df578caa5a7b63
  561. [wtv @ 01D0B940] unsupported chunk:839574409d6bec4eb43c67a1801e1a9b
  562.     Last message repeated 4 times
  563. [wtv @ 01D0B940] unsupported chunk:7966b5e0b912cc43b7df578caa5a7b63
  564. [wtv @ 01D0B940] unsupported chunk:839574409d6bec4eb43c67a1801e1a9b
  565.     Last message repeated 2 times
  566. [wtv @ 01D0B940] unsupported chunk:7966b5e0b912cc43b7df578caa5a7b63
  567.     Last message repeated 1 times
  568. [wtv @ 01D0B940] unsupported chunk:839574409d6bec4eb43c67a1801e1a9b
  569.     Last message repeated 4 times
  570. [wtv @ 01D0B940] unsupported chunk:7966b5e0b912cc43b7df578caa5a7b63
  571. [wtv @ 01D0B940] unsupported chunk:839574409d6bec4eb43c67a1801e1a9b
  572.     Last message repeated 18 times
  573. [aac @ 01BD0EE0] Number of bands (48) exceeds limit (46).
  574. [wtv @ 01D0B940] unsupported chunk:839574409d6bec4eb43c67a1801e1a9b
  575. [wtv @ 01D0B940] unsupported chunk:7966b5e0b912cc43b7df578caa5a7b63
  576. [wtv @ 01D0B940] unsupported chunk:839574409d6bec4eb43c67a1801e1a9b
  577.     Last message repeated 5 times
  578. [aac @ 01C286A0] More than one AAC RDB per ADTS frame is not implemented. Update your FFmpeg version to the newest one from Git. If the problem still occurs, it means that your file has a feature which has not been implemented.
  579. [aac @ 01C286A0] Error decoding AAC frame header.
  580. [aac @ 01C286A0] channel element 2.9 is not allocated
  581. [wtv @ 01D0B940] unsupported chunk:839574409d6bec4eb43c67a1801e1a9b
  582.     Last message repeated 1 times
  583. [wtv @ 01D0B940] unsupported chunk:7966b5e0b912cc43b7df578caa5a7b63
  584. [wtv @ 01D0B940] unsupported chunk:839574409d6bec4eb43c67a1801e1a9b
  585.     Last message repeated 1 times
  586. [wtv @ 01D0B940] unsupported chunk:ae31d8ea29551f4dafce0d8cd1257d30
  587. [wtv @ 01D0B940] unsupported chunk:839574409d6bec4eb43c67a1801e1a9b
  588.     Last message repeated 3 times
  589. [wtv @ 01D0B940] unsupported chunk:7966b5e0b912cc43b7df578caa5a7b63
  590. [wtv @ 01D0B940] unsupported chunk:839574409d6bec4eb43c67a1801e1a9b
  591. [wtv @ 01D0B940] unsupported chunk:7966b5e0b912cc43b7df578caa5a7b63
  592. [wtv @ 01D0B940] unsupported chunk:839574409d6bec4eb43c67a1801e1a9b
  593.     Last message repeated 2 times
  594. [aac @ 01BD0EE0] SBR was found before the first channel element.
  595. [aac @ 01BD0EE0] Reserved bit set.
  596. [wtv @ 01D0B940] unsupported chunk:839574409d6bec4eb43c67a1801e1a9b
  597. [wtv @ 01D0B940] unsupported chunk:7966b5e0b912cc43b7df578caa5a7b63
  598.     Last message repeated 1 times
  599. [wtv @ 01D0B940] unsupported chunk:839574409d6bec4eb43c67a1801e1a9b
  600. [wtv @ 01D0B940] unsupported chunk:7966b5e0b912cc43b7df578caa5a7b63
  601. [wtv @ 01D0B940] unsupported chunk:839574409d6bec4eb43c67a1801e1a9b
  602.     Last message repeated 6 times
  603. [wtv @ 01D0B940] unsupported chunk:7966b5e0b912cc43b7df578caa5a7b63
  604. [wtv @ 01D0B940] unsupported chunk:839574409d6bec4eb43c67a1801e1a9b
  605. [wtv @ 01D0B940] unsupported chunk:7966b5e0b912cc43b7df578caa5a7b63
  606. [wtv @ 01D0B940] unsupported chunk:839574409d6bec4eb43c67a1801e1a9b
  607.     Last message repeated 3 times
  608. [aac @ 01BD0EE0] More than one AAC RDB per ADTS frame is not implemented. Update your FFmpeg version to the newest one from Git. If the problem still occurs, it means that your file has a feature which has not been implemented.
  609. [aac @ 01BD0EE0] Error decoding AAC frame header.
  610. [wtv @ 01D0B940] unsupported chunk:839574409d6bec4eb43c67a1801e1a9b
  611.     Last message repeated 3 times
  612. [wtv @ 01D0B940] unsupported chunk:7966b5e0b912cc43b7df578caa5a7b63
  613. [wtv @ 01D0B940] unsupported chunk:839574409d6bec4eb43c67a1801e1a9b
  614.     Last message repeated 9 times
  615. [wtv @ 01D0B940] unsupported chunk:7966b5e0b912cc43b7df578caa5a7b63
  616. [wtv @ 01D0B940] unsupported chunk:839574409d6bec4eb43c67a1801e1a9b
  617.     Last message repeated 4 times
  618. [wtv @ 01D0B940] unsupported chunk:7966b5e0b912cc43b7df578caa5a7b63
  619. [wtv @ 01D0B940] unsupported chunk:839574409d6bec4eb43c67a1801e1a9b
  620.     Last message repeated 4 times
  621. [wtv @ 01D0B940] unsupported chunk:7966b5e0b912cc43b7df578caa5a7b63
  622. [wtv @ 01D0B940] unsupported chunk:839574409d6bec4eb43c67a1801e1a9b
  623.     Last message repeated 1 times
  624. [wtv @ 01D0B940] unsupported chunk:7966b5e0b912cc43b7df578caa5a7b63
  625. [wtv @ 01D0B940] unsupported chunk:839574409d6bec4eb43c67a1801e1a9b
  626.     Last message repeated 8 times
  627. [aac @ 01C286A0] More than one AAC RDB per ADTS frame is not implemented. Update your FFmpeg version to the newest one from Git. If the problem still occurs, it means that your file has a feature which has not been implemented.
  628. [aac @ 01C286A0] Error decoding AAC frame header.
  629. [wtv @ 01D0B940] unsupported chunk:7966b5e0b912cc43b7df578caa5a7b63
  630. [wtv @ 01D0B940] unsupported chunk:839574409d6bec4eb43c67a1801e1a9b
  631. [wtv @ 01D0B940] unsupported chunk:7966b5e0b912cc43b7df578caa5a7b63
  632. [wtv @ 01D0B940] unsupported chunk:839574409d6bec4eb43c67a1801e1a9b
  633. [wtv @ 01D0B940] unsupported chunk:7966b5e0b912cc43b7df578caa5a7b63
  634. [wtv @ 01D0B940] unsupported chunk:839574409d6bec4eb43c67a1801e1a9b
  635.     Last message repeated 9 times
  636. [wtv @ 01D0B940] unsupported chunk:7966b5e0b912cc43b7df578caa5a7b63
  637. [wtv @ 01D0B940] unsupported chunk:839574409d6bec4eb43c67a1801e1a9b
  638.     Last message repeated 2 times
  639. [aac @ 01BD0EE0] Reserved bit set.
  640. [aac @ 01BD0EE0] More than one AAC RDB per ADTS frame is not implemented. Update your FFmpeg version to the newest one from Git. If the problem still occurs, it means that your file has a feature which has not been implemented.
  641. [aac @ 01BD0EE0] Error decoding AAC frame header.
  642. [wtv @ 01D0B940] unsupported chunk:839574409d6bec4eb43c67a1801e1a9b
  643.     Last message repeated 2 times
  644. [wtv @ 01D0B940] unsupported chunk:7966b5e0b912cc43b7df578caa5a7b63
  645. [wtv @ 01D0B940] unsupported chunk:839574409d6bec4eb43c67a1801e1a9b
  646.     Last message repeated 1 times
  647. [wtv @ 01D0B940] unsupported chunk:7966b5e0b912cc43b7df578caa5a7b63
  648. [wtv @ 01D0B940] unsupported chunk:839574409d6bec4eb43c67a1801e1a9b
  649.     Last message repeated 4 times
  650. [wtv @ 01D0B940] unsupported chunk:7966b5e0b912cc43b7df578caa5a7b63
  651. [wtv @ 01D0B940] unsupported chunk:839574409d6bec4eb43c67a1801e1a9b
  652. [wtv @ 01D0B940] unsupported chunk:7966b5e0b912cc43b7df578caa5a7b63
  653. [wtv @ 01D0B940] unsupported chunk:839574409d6bec4eb43c67a1801e1a9b
  654.     Last message repeated 20 times
  655. [wtv @ 01D0B940] unsupported chunk:7966b5e0b912cc43b7df578caa5a7b63
  656.     Last message repeated 1 times
  657. [wtv @ 01D0B940] unsupported chunk:839574409d6bec4eb43c67a1801e1a9b
  658.     Last message repeated 11 times
  659. [wtv @ 01D0B940] unsupported chunk:7966b5e0b912cc43b7df578caa5a7b63
  660. [wtv @ 01D0B940] unsupported chunk:839574409d6bec4eb43c67a1801e1a9b
  661.     Last message repeated 1 times
  662. [wtv @ 01D0B940] unsupported chunk:7966b5e0b912cc43b7df578caa5a7b63
  663. [wtv @ 01D0B940] unsupported chunk:839574409d6bec4eb43c67a1801e1a9b
  664.     Last message repeated 3 times
  665. [wtv @ 01D0B940] unsupported chunk:7966b5e0b912cc43b7df578caa5a7b63
  666. [wtv @ 01D0B940] unsupported chunk:839574409d6bec4eb43c67a1801e1a9b
  667.     Last message repeated 16 times
  668. [wtv @ 01D0B940] unsupported chunk:7966b5e0b912cc43b7df578caa5a7b63
  669. [wtv @ 01D0B940] unsupported chunk:839574409d6bec4eb43c67a1801e1a9b
  670.     Last message repeated 1 times
  671. [wtv @ 01D0B940] unsupported chunk:7966b5e0b912cc43b7df578caa5a7b63
  672. [wtv @ 01D0B940] unsupported chunk:839574409d6bec4eb43c67a1801e1a9b
  673.     Last message repeated 3 times
  674. [aac @ 01C286A0] channel element 1.15 is not allocated
  675. [wtv @ 01D0B940] unsupported chunk:7966b5e0b912cc43b7df578caa5a7b63
  676. [wtv @ 01D0B940] unsupported chunk:839574409d6bec4eb43c67a1801e1a9b
  677.     Last message repeated 3 times
  678. [wtv @ 01D0B940] unsupported chunk:7966b5e0b912cc43b7df578caa5a7b63
  679. [wtv @ 01D0B940] unsupported chunk:839574409d6bec4eb43c67a1801e1a9b
  680.     Last message repeated 5 times
  681. [wtv @ 01D0B940] unsupported chunk:7966b5e0b912cc43b7df578caa5a7b63
  682.     Last message repeated 1 times
  683. [wtv @ 01D0B940] unsupported chunk:839574409d6bec4eb43c67a1801e1a9b
  684.     Last message repeated 5 times
  685. [aac @ 01BD0EE0] Prediction is not allowed in AAC-LC.
  686. [aac @ 01BD0EE0] More than one AAC RDB per ADTS frame is not implemented. Update your FFmpeg version to the newest one from Git. If the problem still occurs, it means that your file has a feature which has not been implemented.
  687. [aac @ 01BD0EE0] Error decoding AAC frame header.
  688. [wtv @ 01D0B940] unsupported chunk:839574409d6bec4eb43c67a1801e1a9b
  689. [wtv @ 01D0B940] unsupported chunk:7966b5e0b912cc43b7df578caa5a7b63
  690. [wtv @ 01D0B940] unsupported chunk:839574409d6bec4eb43c67a1801e1a9b
  691.     Last message repeated 9 times
  692. [aac @ 01C286A0] More than one AAC RDB per ADTS frame is not implemented. Update your FFmpeg version to the newest one from Git. If the problem still occurs, it means that your file has a feature which has not been implemented.
  693. [aac @ 01C286A0] Error decoding AAC frame header.
  694. [wtv @ 01D0B940] unsupported chunk:839574409d6bec4eb43c67a1801e1a9b
  695. [wtv @ 01D0B940] unsupported chunk:7966b5e0b912cc43b7df578caa5a7b63
  696. [wtv @ 01D0B940] unsupported chunk:839574409d6bec4eb43c67a1801e1a9b
  697.     Last message repeated 16 times
  698. [wtv @ 01D0B940] unsupported chunk:7966b5e0b912cc43b7df578caa5a7b63
  699. [wtv @ 01D0B940] unsupported chunk:839574409d6bec4eb43c67a1801e1a9b
  700.     Last message repeated 1 times
  701. [aac @ 01BD0EE0] Sample rate index in program config element does not match the sample rate index configured by the container.
  702. [aac @ 01BD0EE0] Not evaluating a further program_config_element as this construct is dubious at best.
  703. [wtv @ 01D0B940] unsupported chunk:839574409d6bec4eb43c67a1801e1a9b
  704.     Last message repeated 1 times
  705. [wtv @ 01D0B940] unsupported chunk:7966b5e0b912cc43b7df578caa5a7b63
  706. Input #0, wtv, from 'E:\Recorded TV\・ァ・。・エ・・  閾ェ陦幃嚏縲€蠖シ縺ョ蝨ー縺ォ縺ヲ縲∵民縺乗姶縺医j_繝・Ξ繝捺・遏・_2016_03_13_01_50_00.wtv':
  707.   Metadata:
  708.     Tuner ID        : 6DECFBBD-979B-4201-99A4-78F7618228E6
  709.     WM/MediaClassPrimaryID: db9830bd-3ab3-4fab-8a371a995f7ff74b6
  710.     WM/MediaClassSecondaryID: ba7f258a-62f7-47a9-b21f4651c42a000e6
  711.     Title           : ・ァ・。・エ・・  閾ェ陦幃嚏縲€蠖シ縺ョ蝨ー縺ォ縺ヲ縲∵民縺乗姶縺医j
  712.     WM/SubTitleDescription: 譚ア莠ャ驫€蠎ァ縺ォ遯∝ヲゅ€檎焚荳也阜縺ク縺ョ髢€・医ご繝シ繝茨シ峨€阪′迴セ繧後◆縲ゅ↑縺繧瑚セシ繧薙〒縺阪◆繝「繝ウ繧ケ繧ソ繝シ縺ョ霆榊兇繧呈茶騾€縺励◆髯ク荳願・陦幃嚏縺ッ縲・摩縺ョ蜷代%縺・・縺ョ縲檎音蝨ー縲阪↓騾イ蜃コ迴セ蝨ー菴乗ー代→縺ョ謗・隗ヲ繧帝幕蟋九☆繧・
  713.     genre           : 繧「繝九Γ/迚ケ謦ョ;蝗ス蜀・い繝九Γ
  714.     WM/OriginalReleaseTime: 0
  715.     WM/MediaCredits : ;;;
  716.     service_provider: 繝・Ξ繝捺・遏・
  717.     service_name    : 繝・Ξ繝捺・遏・・・
  718.     WM/MediaOriginalChannel: 101
  719.     WM/MediaOriginalChannelSubNumber: 0
  720.     WM/MediaOriginalBroadcastDateTime: 0001-01-01T00:00:00Z
  721.     WM/MediaOriginalRunTime: 17984819165
  722.     WM/MediaIsStereo: false
  723.     WM/MediaIsRepeat: false
  724.     WM/MediaIsLive  : false
  725.     WM/MediaIsTape  : false
  726.     WM/MediaIsDelay : false
  727.     WM/MediaIsSubtitled: false
  728.     WM/MediaIsMovie : false
  729.     WM/MediaIsPremiere: false
  730.     WM/MediaIsFinale: false
  731.     WM/MediaIsSAP   : false
  732.     WM/MediaIsSport : false
  733.     WM/Provider     : MediaCenterDefault
  734.     WM/VideoClosedCaptioning: false
  735.     WM/WMRVEncodeTime: 2016-03-12 16:50:01
  736.     WM/WMRVSeriesUID: !GenericSeries!GATE縲€閾ェ陦幃嚏縲€蠖シ縺ョ蝨ー縺ォ縺ヲ縲∵民縺乗姶縺医j
  737.     WM/WMRVServiceID: !Generated!5d442ca19fe846ef8965b462da2360ae
  738.     WM/WMRVProgramID: !Loaders!Glid!Programs!32230:32230:33841!27558
  739.     WM/WMRVRequestID: 0
  740.     WM/WMRVScheduleItemID: 0
  741.     WM/WMRVQuality  : 0
  742.     WM/WMRVOriginalSoftPrePadding: 300
  743.     WM/WMRVOriginalSoftPostPadding: 0
  744.     WM/WMRVHardPrePadding: -300
  745.     WM/WMRVHardPostPadding: 0
  746.     WM/WMRVBrandingName: ISDB
  747.     WM/WMRVATSCContent: false
  748.     WM/WMRVDTVContent: true
  749.     WM/WMRVHDContent: true
  750.     Num Licenses    : 3
  751.     WM/MediaThumbWidth: 352
  752.     WM/MediaThumbHeight: 264
  753.     WM/MediaThumbStride: 1056
  754.     WM/MediaThumbRet: 0
  755.     WM/MediaThumbRatingSystem: 255
  756.     WM/MediaThumbRatingLevel: 255
  757.     WM/MediaThumbRatingAttributes: 0
  758.     WM/MediaThumbAspectRatioX: 16
  759.     WM/MediaThumbAspectRatioY: 9
  760.     WM/MediaThumbTimeStamp: 4646865639452589103
  761.     WM/MediaThumbType: 3
  762.     Duration        : 17989508942
  763.     WM/WMRVEndTime  : 2016-03-12 17:20:00
  764.     WM/WMRVBitrate  : 17.099424
  765.     WM/WMRVKeepUntil: -1
  766.     WM/WMRVActualSoftPrePadding: 298
  767.     WM/WMRVActualSoftPostPadding: 0
  768.     WM/WMRVContentProtected: true
  769.     WM/WMRVContentProtectedPercent: 100
  770.     WM/WMRVExpirationSpan: 9223372036854775807
  771.     WM/WMRVInBandRatingSystem: 255
  772.     WM/WMRVInBandRatingLevel: 255
  773.     WM/WMRVInBandRatingAttributes: 0
  774.     WM/WMRVWatched  : true
  775.   Duration: 00:29:58.02, start: 1.990388, bitrate: 17108 kb/s
  776.     Stream #0:0[0x3c](jpn): Audio: aac ([0][22][0][0] / 0x1600), 48000 Hz, stereo, s16, 171 kb/s
  777.     Stream #0:1[0x3f](eng): Audio: aac ([0][22][0][0] / 0x1600), 22050 Hz, 5.1, s16, 538 kb/s
  778.     Stream #0:2[0x40]: Video: mpeg2video (Main), yuv420p, 1440x1080 [SAR 4:3 DAR 16:9], 24000 kb/s, 33.67 fps, 29.97 tbr, 10000k tbn, 59.94 tbc
  779.     Stream #0:3[0x0]: Attachment: mjpeg
  780.     Metadata:
  781.       title           : TV Thumbnail
  782. Incompatible sample format 's16' for codec 'ac3', auto-selecting format 'flt'
  783. [ac3 @ 040CC440] channel_layout not specified
  784. [ac3 @ 040CC440] No channel layout specified. The encoder will guess the layout, but it might be incorrect.
  785. [ac3 @ 040CC440] invalid bit rate
  786. Output #0, vob, to 'E:\Recorded TV\・ァ・。・エ・・  閾ェ陦幃嚏縲€蠖シ縺ョ蝨ー縺ォ縺ヲ縲∵民縺乗姶縺医j_繝・Ξ繝捺・遏・_2016_03_13_01_50_00.wtv.mpg':
  787.   Metadata:
  788.     Tuner ID        : 6DECFBBD-979B-4201-99A4-78F7618228E6
  789.     WM/MediaClassPrimaryID: db9830bd-3ab3-4fab-8a371a995f7ff74b6
  790.     WM/MediaClassSecondaryID: ba7f258a-62f7-47a9-b21f4651c42a000e6
  791.     Title           : ・ァ・。・エ・・  閾ェ陦幃嚏縲€蠖シ縺ョ蝨ー縺ォ縺ヲ縲∵民縺乗姶縺医j
  792.     WM/SubTitleDescription: 譚ア莠ャ驫€蠎ァ縺ォ遯∝ヲゅ€檎焚荳也阜縺ク縺ョ髢€・医ご繝シ繝茨シ峨€阪′迴セ繧後◆縲ゅ↑縺繧瑚セシ繧薙〒縺阪◆繝「繝ウ繧ケ繧ソ繝シ縺ョ霆榊兇繧呈茶騾€縺励◆髯ク荳願・陦幃嚏縺ッ縲・摩縺ョ蜷代%縺・・縺ョ縲檎音蝨ー縲阪↓騾イ蜃コ迴セ蝨ー菴乗ー代→縺ョ謗・隗ヲ繧帝幕蟋九☆繧・
  793.     genre           : 繧「繝九Γ/迚ケ謦ョ;蝗ス蜀・い繝九Γ
  794.     WM/OriginalReleaseTime: 0
  795.     WM/MediaCredits : ;;;
  796.     service_provider: 繝・Ξ繝捺・遏・
  797.     service_name    : 繝・Ξ繝捺・遏・・・
  798.     WM/MediaOriginalChannel: 101
  799.     WM/MediaOriginalChannelSubNumber: 0
  800.     WM/MediaOriginalBroadcastDateTime: 0001-01-01T00:00:00Z
  801.     WM/MediaOriginalRunTime: 17984819165
  802.     WM/MediaIsStereo: false
  803.     WM/MediaIsRepeat: false
  804.     WM/MediaIsLive  : false
  805.     WM/MediaIsTape  : false
  806.     WM/MediaIsDelay : false
  807.     WM/MediaIsSubtitled: false
  808.     WM/MediaIsMovie : false
  809.     WM/MediaIsPremiere: false
  810.     WM/MediaIsFinale: false
  811.     WM/MediaIsSAP   : false
  812.     WM/MediaIsSport : false
  813.     WM/Provider     : MediaCenterDefault
  814.     WM/VideoClosedCaptioning: false
  815.     WM/WMRVEncodeTime: 2016-03-12 16:50:01
  816.     WM/WMRVSeriesUID: !GenericSeries!GATE縲€閾ェ陦幃嚏縲€蠖シ縺ョ蝨ー縺ォ縺ヲ縲∵民縺乗姶縺医j
  817.     WM/WMRVServiceID: !Generated!5d442ca19fe846ef8965b462da2360ae
  818.     WM/WMRVProgramID: !Loaders!Glid!Programs!32230:32230:33841!27558
  819.     WM/WMRVRequestID: 0
  820.     WM/WMRVScheduleItemID: 0
  821.     WM/WMRVQuality  : 0
  822.     WM/WMRVOriginalSoftPrePadding: 300
  823.     WM/WMRVOriginalSoftPostPadding: 0
  824.     WM/WMRVHardPrePadding: -300
  825.     WM/WMRVHardPostPadding: 0
  826.     WM/WMRVBrandingName: ISDB
  827.     WM/WMRVATSCContent: false
  828.     WM/WMRVDTVContent: true
  829.     WM/WMRVHDContent: true
  830.     Num Licenses    : 3
  831.     WM/MediaThumbWidth: 352
  832.     WM/MediaThumbHeight: 264
  833.     WM/MediaThumbStride: 1056
  834.     WM/MediaThumbRet: 0
  835.     WM/MediaThumbRatingSystem: 255
  836.     WM/MediaThumbRatingLevel: 255
  837.     WM/MediaThumbRatingAttributes: 0
  838.     WM/MediaThumbAspectRatioX: 16
  839.     WM/MediaThumbAspectRatioY: 9
  840.     WM/MediaThumbTimeStamp: 4646865639452589103
  841.     WM/MediaThumbType: 3
  842.     Duration        : 17989508942
  843.     WM/WMRVEndTime  : 2016-03-12 17:20:00
  844.     WM/WMRVBitrate  : 17.099424
  845.     WM/WMRVKeepUntil: -1
  846.     WM/WMRVActualSoftPrePadding: 298
  847.     WM/WMRVActualSoftPostPadding: 0
  848.     WM/WMRVContentProtected: true
  849.     WM/WMRVContentProtectedPercent: 100
  850.     WM/WMRVExpirationSpan: 9223372036854775807
  851.     WM/WMRVInBandRatingSystem: 255
  852.     WM/WMRVInBandRatingLevel: 255
  853.     WM/WMRVInBandRatingAttributes: 0
  854.     WM/WMRVWatched  : true
  855.     Stream #0:0: Video: mpeg2video, yuv420p, 1440x1080 [SAR 4:3 DAR 16:9], q=2-31, 24000 kb/s, 90k tbn, 29.97 tbc
  856.     Stream #0:1(eng): Audio: ac3, 22050 Hz, 5.1(side), flt, 384 kb/s
  857. Stream mapping:
  858.   Stream #0.2 -> #0.0 (copy)
  859.   Stream #0.1 -> #0.1 (aac -> ac3)
  860. Error while opening encoder for output stream #0.1 - maybe incorrect parameters such as bit_rate, rate, width or height
  861. 12cc43b7df578caa5a7b63
  862. [wtv @ 00038A80] unsupported chunk:839574409d6bec4eb43c67a1801e1a9b
  863.     Last message repeated 2 times
  864. [aac @ 00039840] Sample rate index in program config element does not match the sample rate index configured by the container.
  865. [aac @ 00039840] Not evaluating a further program_config_element as this construct is dubious at best.
  866. [aac @ 00039840] ms_present = 3 is reserved.
  867. [w2016/04/07, 10:43:44: ---- ERROR in conversion: filesize is 0 bytes
  868. 2016/04/07, 10:43:44: rename file to: "E:\Recorded TV\GATE  自衛隊 彼の地にて、斯く戦えり_テレビ愛知_2016_03_13_01_50_00.mpg"
  869. 2016/04/07, 10:43:44: renameFile - old filename: "E:\Recorded TV\GATE  自衛隊 彼の地にて、斯く戦えり_テレビ愛知_2016_03_13_01_50_00.wtv.mpg"
  870. 2016/04/07, 10:43:44: renameFile - new filename: "E:\Recorded TV\GATE  自衛隊 彼の地にて、斯く戦えり_テレビ愛知_2016_03_13_01_50_00.mpg"
  871. 2016/04/07, 10:43:44: get orig file created date: 20160313015001
  872. 2016/04/07, 10:43:44: set converted file created date to: 20160313015001 - "E:\Recorded TV\GATE  自衛隊 彼の地にて、斯く戦えり_テレビ愛知_2016_03_13_01_50_00.mpg"
  873. 2016/04/07, 10:43:44:
  874. 2016/04/07, 10:43:44: -------- conversion finished
RAW Paste Data
We use cookies for various purposes including analytics. By continuing to use Pastebin, you agree to our use of cookies as described in the Cookies Policy. OK, I Understand
 
Top