Guest User

EP1

a guest
May 3rd, 2020
13
Never
Not a member of Pastebin yet? Sign Up, it unlocks many cool features!
  1. General
  2. Unique ID : 102279092143907164012854270265365520381 (0x4CF23C936BD4B0428F9FA5DA377A5FFD)
  3. Complete name : ----
  4. Format : Matroska
  5. Format version : Version 4
  6. File size : 49.2 GiB
  7. Duration : 2 h 16 min
  8. Overall bit rate mode : Variable
  9. Overall bit rate : 51.7 Mb/s
  10. Movie name : ----
  11. Encoded date : UTC 2020-04-30 23:38:28
  12. Writing application : mkvmerge v31.0.0 ('Dolores In A Shoestand') 64-bit
  13. Writing library : libebml v1.3.6 + libmatroska v1.4.9
  14.  
  15. Video
  16. ID : 1
  17. Format : HEVC
  18. Format/Info : High Efficiency Video Coding
  19. Format profile : Main 10@L5.1@High
  20. HDR format : SMPTE ST 2086, HDR10 compatible
  21. Codec ID : V_MPEGH/ISO/HEVC
  22. Duration : 2 h 16 min
  23. Bit rate : 44.8 Mb/s
  24. Width : 3 840 pixels
  25. Height : 2 160 pixels
  26. Display aspect ratio : 16:9
  27. Frame rate mode : Constant
  28. Frame rate : 23.976 (24000/1001) FPS
  29. Color space : YUV
  30. Chroma subsampling : 4:2:0 (Type 2)
  31. Bit depth : 10 bits
  32. Bits/(Pixel*Frame) : 0.225
  33. Stream size : 42.6 GiB (87%)
  34. Writing library : ATEME Titan File 3.9.0 (4.9.0.0)
  35. Language : English
  36. Default : No
  37. Forced : No
  38. Color range : Limited
  39. Color primaries : BT.2020
  40. Transfer characteristics : PQ
  41. Matrix coefficients : BT.2020 non-constant
  42. Mastering display color primaries : BT.2020
  43. Mastering display luminance : min: 0.0001 cd/m2, max: 1000 cd/m2
  44.  
  45. Audio #1
  46. ID : 2
  47. Format : E-AC-3
  48. Format/Info : Enhanced AC-3
  49. Commercial name : Dolby Digital Plus
  50. Format profile : Blu-ray Disc
  51. Codec ID : A_EAC3
  52. Duration : 2 h 16 min
  53. Bit rate mode : Constant
  54. Bit rate : 1 024 kb/s
  55. Channel(s) : 8 channels
  56. Channel layout : L R C LFE Ls Rs Lb Rb
  57. Sampling rate : 48.0 kHz
  58. Frame rate : 31.250 FPS (1536 SPF)
  59. Compression mode : Lossy
  60. Stream size : 998 MiB (2%)
  61. Title : Surround 7.1
  62. Language : German
  63. Service kind : Complete Main
  64. Default : Yes
  65. Forced : No
  66.  
  67. Audio #2
  68. ID : 3
  69. Format : AC-3
  70. Format/Info : Audio Coding 3
  71. Commercial name : Dolby Digital
  72. Codec ID : A_AC3
  73. Duration : 2 h 16 min
  74. Bit rate mode : Constant
  75. Bit rate : 576 kb/s
  76. Channel(s) : 6 channels
  77. Channel layout : L R C LFE Ls Rs
  78. Sampling rate : 48.0 kHz
  79. Frame rate : 31.250 FPS (1536 SPF)
  80. Compression mode : Lossy
  81. Stream size : 561 MiB (1%)
  82. Title : Surround 5.1
  83. Language : German
  84. Service kind : Complete Main
  85. Default : No
  86. Forced : No
  87.  
  88. Audio #3
  89. ID : 4
  90. Format : MLP FBA 16-ch
  91. Format/Info : Meridian Lossless Packing FBA with 16-channel presentation
  92. Commercial name : Dolby TrueHD with Dolby Atmos
  93. Codec ID : A_TRUEHD
  94. Duration : 2 h 16 min
  95. Bit rate mode : Variable
  96. Bit rate : 4 271 kb/s
  97. Maximum bit rate : 5 580 kb/s
  98. Channel(s) : 8 channels
  99. Channel layout : L R C LFE Ls Rs Lb Rb
  100. Sampling rate : 48.0 kHz
  101. Frame rate : 1 200.000 FPS (40 SPF)
  102. Compression mode : Lossless
  103. Stream size : 4.06 GiB (8%)
  104. Title : Surround 7.1
  105. Language : English
  106. Default : No
  107. Forced : No
  108. Number of dynamic objects : 13
  109. Bed channel count : 1 channel
  110. Bed channel configuration : LFE
  111.  
  112. Audio #4
  113. ID : 5
  114. Format : AC-3
  115. Format/Info : Audio Coding 3
  116. Commercial name : Dolby Digital
  117. Codec ID : A_AC3
  118. Duration : 2 h 16 min
  119. Bit rate mode : Constant
  120. Bit rate : 640 kb/s
  121. Channel(s) : 6 channels
  122. Channel layout : L R C LFE Ls Rs
  123. Sampling rate : 48.0 kHz
  124. Frame rate : 31.250 FPS (1536 SPF)
  125. Compression mode : Lossy
  126. Stream size : 623 MiB (1%)
  127. Title : Surround 5.1
  128. Language : English
  129. Service kind : Complete Main
  130. Default : No
  131. Forced : No
  132.  
  133. Audio #5
  134. ID : 6
  135. Format : AC-3
  136. Format/Info : Audio Coding 3
  137. Commercial name : Dolby Digital
  138. Codec ID : A_AC3
  139. Duration : 2 h 16 min
  140. Bit rate mode : Constant
  141. Bit rate : 320 kb/s
  142. Channel(s) : 2 channels
  143. Channel layout : L R
  144. Sampling rate : 48.0 kHz
  145. Frame rate : 31.250 FPS (1536 SPF)
  146. Compression mode : Lossy
  147. Stream size : 312 MiB (1%)
  148. Title : Stereo
  149. Language : English
  150. Service kind : Complete Main
  151. Default : No
  152. Forced : No
  153.  
  154. Text #1
  155. ID : 7
  156. Format : UTF-8
  157. Codec ID : S_TEXT/UTF8
  158. Codec ID/Info : UTF-8 Plain Text
  159. Duration : 26 min 44 s
  160. Bit rate : 4 b/s
  161. Count of elements : 29
  162. Stream size : 999 Bytes (0%)
  163. Title : forced srt
  164. Language : German
  165. Default : Yes
  166. Forced : Yes
  167.  
  168. Text #2
  169. ID : 8
  170. Format : PGS
  171. Muxing mode : zlib
  172. Codec ID : S_HDMV/PGS
  173. Codec ID/Info : Picture based subtitle format used on BDs/HD-DVDs
  174. Duration : 58 min 39 s
  175. Bit rate : 1 478 b/s
  176. Count of elements : 78
  177. Stream size : 635 KiB (0%)
  178. Title : forced
  179. Language : German
  180. Default : No
  181. Forced : No
  182.  
  183. Text #3
  184. ID : 9
  185. Format : PGS
  186. Muxing mode : zlib
  187. Codec ID : S_HDMV/PGS
  188. Codec ID/Info : Picture based subtitle format used on BDs/HD-DVDs
  189. Duration : 2 h 15 min
  190. Bit rate : 33.0 kb/s
  191. Count of elements : 3192
  192. Stream size : 32.0 MiB (0%)
  193. Language : English
  194. Default : No
  195. Forced : No
  196.  
  197. Text #4
  198. ID : 10
  199. Format : PGS
  200. Muxing mode : zlib
  201. Codec ID : S_HDMV/PGS
  202. Codec ID/Info : Picture based subtitle format used on BDs/HD-DVDs
  203. Duration : 2 h 9 min
  204. Bit rate : 38.6 kb/s
  205. Count of elements : 2964
  206. Stream size : 35.7 MiB (0%)
  207. Language : German
  208. Default : No
  209. Forced : No
  210.  
  211. Menu
  212. 00:00:00.000 : en:Chapter 01
  213. 00:00:21.771 : en:Chapter 02
  214. 00:01:53.613 : en:Chapter 03
  215. 00:07:56.017 : en:Chapter 04
  216. 00:09:56.387 : en:Chapter 05
  217. 00:11:19.261 : en:Chapter 06
  218. 00:13:24.720 : en:Chapter 07
  219. 00:14:50.306 : en:Chapter 08
  220. 00:17:14.825 : en:Chapter 09
  221. 00:20:41.490 : en:Chapter 10
  222. 00:22:25.802 : en:Chapter 11
  223. 00:25:13.470 : en:Chapter 12
  224. 00:29:33.271 : en:Chapter 13
  225. 00:31:42.025 : en:Chapter 14
  226. 00:35:52.150 : en:Chapter 15
  227. 00:40:49.071 : en:Chapter 16
  228. 00:44:16.945 : en:Chapter 17
  229. 00:52:05.205 : en:Chapter 18
  230. 00:55:04.175 : en:Chapter 19
  231. 00:58:28.379 : en:Chapter 20
  232. 01:02:28.077 : en:Chapter 21
  233. 01:05:33.679 : en:Chapter 22
  234. 01:10:07.494 : en:Chapter 23
  235. 01:11:18.274 : en:Chapter 24
  236. 01:16:21.535 : en:Chapter 25
  237. 01:18:08.558 : en:Chapter 26
  238. 01:20:26.988 : en:Chapter 27
  239. 01:24:18.636 : en:Chapter 28
  240. 01:26:45.450 : en:Chapter 29
  241. 01:29:55.348 : en:Chapter 30
  242. 01:31:02.874 : en:Chapter 31
  243. 01:33:09.208 : en:Chapter 32
  244. 01:37:22.002 : en:Chapter 33
  245. 01:39:06.732 : en:Chapter 34
  246. 01:42:34.106 : en:Chapter 35
  247. 01:44:42.109 : en:Chapter 36
  248. 01:46:19.873 : en:Chapter 37
  249. 01:48:08.398 : en:Chapter 38
  250. 01:50:25.619 : en:Chapter 39
  251. 01:56:48.334 : en:Chapter 40
  252. 01:59:13.396 : en:Chapter 41
  253. 02:00:32.558 : en:Chapter 42
  254. 02:01:21.983 : en:Chapter 43
  255. 02:02:23.753 : en:Chapter 44
  256. 02:03:57.638 : en:Chapter 45
  257. 02:05:15.758 : en:Chapter 46
  258. 02:06:26.662 : en:Chapter 47
  259. 02:07:23.719 : en:Chapter 48
  260. 02:08:29.660 : en:Chapter 49
  261. 02:09:53.911 : en:Chapter 50
RAW Paste Data