Henry_Kr

Doro-S01

Jul 27th, 2020
66
Never
Not a member of Pastebin yet? Sign Up, it unlocks many cool features!
  1. Video
  2. ID : 1
  3. Format : AVC
  4. Format/Info : Advanced Video Codec
  5. Format profile : Main@L4
  6. Format settings : CABAC / 3 Ref Frames
  7. Format settings, CABAC : Yes
  8. Format settings, Reference : 3 frames
  9. Muxing mode : Header stripping
  10. Codec ID : V_MPEG4/ISO/AVC
  11. Duration : 24 min 39 s
  12. Bit rate mode : Variable
  13. Bit rate : 5 090 kb/s
  14. Nominal bit rate : 5 360 kb/s
  15. Maximum bit rate : 8 040 kb/s
  16. Width : 1 920 pixels
  17. Height : 1 080 pixels
  18. Display aspect ratio : 16:9
  19. Frame rate mode : Constant
  20. Frame rate : 23.976 (24000/1001) FPS
  21. Color space : YUV
  22. Chroma subsampling : 4:2:0
  23. Bit depth : 8 bits
  24. Scan type : Progressive
  25. Bits/(Pixel*Frame) : 0.102
  26. Stream size : 898 MiB (93%)
  27. Title : Dorohedoro.S01E01.1080p.NF.WEB.[CartoonNOW]
  28. Writing library : x264 core 148 r2715 7e75228
  29. Language : Japanese
  30. Default : Yes
  31. Forced : No
  32. Duration_Source : General_Duration
  33.  
  34. Audio #1
  35. ID : 2
  36. Format : E-AC-3
  37. Format/Info : Enhanced AC-3
  38. Commercial name : Dolby Digital Plus
  39. Muxing mode : Header stripping
  40. Codec ID : A_EAC3
  41. Duration : 24 min 39 s
  42. Bit rate mode : Constant
  43. Bit rate : 128 kb/s
  44. Channel(s) : 2 channels
  45. Channel layout : L R
  46. Sampling rate : 48.0 kHz
  47. Frame rate : 31.250 FPS (1536 SPF)
  48. Compression mode : Lossy
  49. Stream size : 22.6 MiB (2%)
  50. Title : E-AC3 2.0
  51. Language : Portuguese
  52. Service kind : Complete Main
  53. Default : Yes
  54. Forced : No
  55. Duration_Source : General_Duration
  56.  
  57. Audio #2
  58. ID : 3
  59. Format : E-AC-3
  60. Format/Info : Enhanced AC-3
  61. Commercial name : Dolby Digital Plus
  62. Muxing mode : Header stripping
  63. Codec ID : A_EAC3
  64. Duration : 24 min 39 s
  65. Bit rate mode : Constant
  66. Bit rate : 128 kb/s
  67. Channel(s) : 2 channels
  68. Channel layout : L R
  69. Sampling rate : 48.0 kHz
  70. Frame rate : 31.250 FPS (1536 SPF)
  71. Compression mode : Lossy
  72. Stream size : 22.6 MiB (2%)
  73. Title : E-AC3 2.0
  74. Language : Japanese
  75. Service kind : Complete Main
  76. Default : No
  77. Forced : No
  78. Duration_Source : General_Duration
  79.  
  80. Text
  81. ID : 4
  82. Format : UTF-8
  83. Codec ID : S_TEXT/UTF8
  84. Codec ID/Info : UTF-8 Plain Text
  85. Title : Completa
  86. Language : Portuguese
  87. Default : No
  88. Forced : No
  89. Statistics Tags Issue : mkvmerge v46.0.0 ('No Deeper Escape') 64-bit 2020-05-28 07:01:23 / mkvmerge v5.8.0 ('No Sleep / Pillow') built on Sep 2 2012 15:37:04 2020-07-27 22:30:20
  90. FromStats_BitRate : 42
  91. FromStats_Duration : 00:23:44.965000000
  92. FromStats_FrameCount : 242
  93. FromStats_StreamSize : 7550
  94.  
  95.  
RAW Paste Data