Advertisement
Henry_Kr

BTYB

Oct 9th, 2022
180
0
Never
Not a member of Pastebin yet? Sign Up, it unlocks many cool features!
text 2.43 KB | None | 0 0
  1. Video
  2. ID : 1
  3. Format : AVC
  4. Format/Info : Advanced Video Codec
  5. Format profile : High@L4
  6. Format settings : CABAC / 4 Ref Frames
  7. Format settings, CABAC : Yes
  8. Format settings, Reference : 4 frames
  9. Codec ID : V_MPEG4/ISO/AVC
  10. Duration : 24 min 31 s
  11. Bit rate mode : Variable
  12. Bit rate : 5 832 kb/s
  13. Maximum bit rate : 12.7 Mb/s
  14. Width : 1 920 pixels
  15. Height : 1 080 pixels
  16. Display aspect ratio : 16:9
  17. Frame rate mode : Constant
  18. Frame rate : 23.976 (24000/1001) FPS
  19. Color space : YUV
  20. Chroma subsampling : 4:2:0
  21. Bit depth : 8 bits
  22. Scan type : Progressive
  23. Bits/(Pixel*Frame) : 0.117
  24. Stream size : 1 023 MiB (98%)
  25. Title : Blaech.Thousand-Year.Blood.War.S01E01.The.Blodd.Warfare.1080p.DSNP.WEB.[CartoonNOW]
  26. Language : Japanese
  27. Default : Yes
  28. Forced : No
  29. Color range : Limited
  30. Color primaries : BT.709
  31. Transfer characteristics : BT.709
  32. Matrix coefficients : BT.709
  33.  
  34. Audio
  35. ID : 2
  36. Format : AAC LC
  37. Format/Info : Advanced Audio Codec Low Complexity
  38. Codec ID : A_AAC-2
  39. Duration : 24 min 31 s
  40. Bit rate : 125 kb/s
  41. Channel(s) : 2 channels
  42. Channel layout : L R
  43. Sampling rate : 48.0 kHz
  44. Frame rate : 46.875 FPS (1024 SPF)
  45. Compression mode : Lossy
  46. Stream size : 22.0 MiB (2%)
  47. Title : AAC 2.0
  48. Language : Japanese
  49. Default : Yes
  50. Forced : No
  51.  
  52. Text
  53. ID : 3
  54. Format : UTF-8
  55. Codec ID : S_TEXT/UTF8
  56. Codec ID/Info : UTF-8 Plain Text
  57. Duration : 24 min 4 s
  58. Bit rate : 63 b/s
  59. Count of elements : 353
  60. Stream size : 11.2 KiB (0%)
  61. Title : Completa
  62. Language : Portuguese
  63. Default : Yes
  64. Forced : Yes
Advertisement
Add Comment
Please, Sign In to add comment
Advertisement