Guest User

Untitled

a guest
Jun 4th, 2020
22
Never
Not a member of Pastebin yet? Sign Up, it unlocks many cool features!
  1. Общее
  2. Уникальный идентификатор : 306239996049966454363747930781018812513 (0xE663AD87FB5006FB0CC603E93FC0F061)
  3. Полное имя : El Bar.2017.Remux.W.mkv
  4. Формат : Matroska
  5. Версия формата : Version 4
  6. Размер файла : 21,5 Гбайт
  7. Продолжительность : 1 ч. 42 м.
  8. Режим общего битрейта : Переменный
  9. Общий поток : 30,2 Мбит/сек
  10. Название фильма : El Bar.2017.Remux.W
  11. Дата кодирования : UTC 2020-06-04 15:58:48
  12. Программа кодирования : mkvmerge v23.0.0 ('The Bride Said No') 64-bit
  13. Библиотека кодирования : libebml v1.3.6 + libmatroska v1.4.9
  14.  
  15. Видео
  16. Идентификатор : 1
  17. Формат : AVC
  18. Формат/Информация : Advanced Video Codec
  19. Профиль формата : High@L4.1
  20. Настройки формата : CABAC / 4 Ref Frames
  21. Параметр CABAC формата : Да
  22. Параметр RefFrames формата : 4 кадра
  23. Идентификатор кодека : V_MPEG4/ISO/AVC
  24. Продолжительность : 1 ч. 42 м.
  25. Вид битрейта : Переменный
  26. Битрейт : 25,9 Мбит/сек
  27. Максимальный битрейт : 34,0 Мбит/сек
  28. Ширина : 1 920 пикселей
  29. Высота : 1 080 пикселей
  30. Соотношение сторон : 16:9
  31. Режим частоты кадров : Постоянный
  32. Частота кадров : 24,000 кадра/сек
  33. Стандарт вещания : NTSC
  34. Цветовое пространство : YUV
  35. Субдискретизация насыщенности : 4:2:0
  36. Битовая глубина : 8 бит
  37. Тип развёртки : Прогрессивная
  38. Бит/(Пиксели*Кадры) : 0.520
  39. Размер потока : 18,5 Гбайт (86%)
  40. Язык : Spanish
  41. Default : Да
  42. Forced : Нет
  43. Цветовой диапазон : Limited
  44. Основные цвета : BT.709
  45. Характеристики трансфера : BT.709
  46. Коэффициенты матрицы : BT.709
  47.  
  48. Аудио #1
  49. Идентификатор : 2
  50. Формат : AC-3
  51. Формат/Информация : Audio Coding 3
  52. Коммерческое название : Dolby Digital
  53. Идентификатор кодека : A_AC3
  54. Продолжительность : 1 ч. 42 м.
  55. Вид битрейта : Постоянный
  56. Битрейт : 384 Кбит/сек
  57. Каналы : 6 каналов
  58. Channel layout : L R C LFE Ls Rs
  59. Частота : 48,0 КГц
  60. Частота кадров : 31,250 кадров/сек (1536 SPF)
  61. Метод сжатия : С потерями
  62. Размер потока : 280 Мбайт (1%)
  63. Заголовок : MVO | iTunes
  64. Язык : Russian
  65. Service kind : Complete Main
  66. Default : Да
  67. Forced : Нет
  68.  
  69. Аудио #2
  70. Идентификатор : 3
  71. Формат : DTS XLL
  72. Формат/Информация : Digital Theater Systems
  73. Коммерческое название : DTS-HD Master Audio
  74. Идентификатор кодека : A_DTS
  75. Продолжительность : 1 ч. 42 м.
  76. Вид битрейта : Переменный
  77. Битрейт : 3 939 Кбит/сек
  78. Каналы : 6 каналов
  79. Channel layout : C L R Ls Rs LFE
  80. Частота : 48,0 КГц
  81. Частота кадров : 93,750 кадра/сек (512 SPF)
  82. Битовая глубина : 24 бит
  83. Метод сжатия : Без потерь
  84. Размер потока : 2,81 Гбайт (13%)
  85. Язык : Spanish
  86. Default : Нет
  87. Forced : Нет
  88.  
  89. Текст #1
  90. Идентификатор : 4
  91. Формат : UTF-8
  92. Идентификатор кодека : S_TEXT/UTF8
  93. Идентификатор кодека/Информация : UTF-8 Plain Text
  94. Продолжительность : 1 ч. 37 м.
  95. Битрейт : 105 бит/сек
  96. Count of elements : 1412
  97. Размер потока : 75,0 Кбайт (0%)
  98. Заголовок : Full (lexandros)
  99. Язык : Russian
  100. Default : Нет
  101. Forced : Нет
  102.  
  103. Текст #2
  104. Идентификатор : 5
  105. Формат : UTF-8
  106. Идентификатор кодека : S_TEXT/UTF8
  107. Идентификатор кодека/Информация : UTF-8 Plain Text
  108. Продолжительность : 1 ч. 37 м.
  109. Битрейт : 61 бит/сек
  110. Count of elements : 1415
  111. Размер потока : 43,7 Кбайт (0%)
  112. Язык : English
  113. Default : Нет
  114. Forced : Нет
  115.  
  116. Меню
  117. 00:00:00.000 : en:Chapter 1
  118. 00:07:25.625 : en:Chapter 2
  119. 00:17:14.917 : en:Chapter 3
  120. 00:26:04.917 : en:Chapter 4
  121. 00:33:26.292 : en:Chapter 5
  122. 00:41:39.500 : en:Chapter 6
  123. 00:51:34.375 : en:Chapter 7
  124. 00:59:14.667 : en:Chapter 8
  125. 01:08:20.625 : en:Chapter 9
  126. 01:16:23.667 : en:Chapter 10
  127. 01:24:45.083 : en:Chapter 11
  128. 01:33:44.625 : en:Chapter 12
RAW Paste Data

Adblocker detected! Please consider disabling it...

We've detected AdBlock Plus or some other adblocking software preventing Pastebin.com from fully loading.

We don't have any obnoxious sound, or popup ads, we actively block these annoying types of ads!

Please add Pastebin.com to your ad blocker whitelist or disable your adblocking software.

×