SHARE
TWEET

KanColle Original Sound Track vol.Ⅰ RE Cue-Fix

wfhtony Jul 20th, 2018 (edited) 1,130 Never
Not a member of Pastebin yet? Sign Up, it unlocks many cool features!
  1. REM GENRE ゲーム
  2. REM DATE 2018
  3. REM DISCID D70BF010
  4. REM COMMENT ExactAudioCopy v1.3
  5. CATALOG 4573477880032
  6. PERFORMER "Various Artists"
  7. TITLE "艦隊これくしょん -艦これ- KanColle Original Sound Track vol.Ⅰ 暁 Remaster Edition"
  8. FILE "Various Artists - 艦隊これくしょん -艦これ- KanColle Original Sound Track vol.Ⅰ 暁 Remaster Edition.wav" WAVE
  9.   TRACK 01 AUDIO
  10.     TITLE "母港"
  11.     PERFORMER "宇佐美宏"
  12.     ISRC JPW361800007
  13.     INDEX 01 00:00:00
  14.   TRACK 02 AUDIO
  15.     TITLE "出撃"
  16.     PERFORMER "宇佐美宏"
  17.     ISRC JPW361800008
  18.     INDEX 00 03:35:39
  19.     INDEX 01 03:37:20
  20.   TRACK 03 AUDIO
  21.     TITLE "全艦娘、突撃!"
  22.     PERFORMER "大越香里、宇佐美宏"
  23.     ISRC JPW361800009
  24.     INDEX 00 06:05:52
  25.     INDEX 01 06:07:33
  26.   TRACK 04 AUDIO
  27.     TITLE "工廠"
  28.     PERFORMER "宇佐美宏"
  29.     ISRC JPW361800010
  30.     INDEX 00 08:38:41
  31.     INDEX 01 08:40:22
  32.   TRACK 05 AUDIO
  33.     TITLE "昼戦(砲雷撃戦、始め!)"
  34.     PERFORMER "宇佐美宏"
  35.     ISRC JPW361800011
  36.     INDEX 00 11:52:00
  37.     INDEX 01 11:53:56
  38.   TRACK 06 AUDIO
  39.     TITLE "夜戦"
  40.     PERFORMER "岡宮道生"
  41.     ISRC JPW361800012
  42.     INDEX 00 14:57:51
  43.     INDEX 01 14:59:32
  44.   TRACK 07 AUDIO
  45.     TITLE "海上護衛戦"
  46.     PERFORMER "大越香里"
  47.     ISRC JPW361800013
  48.     INDEX 00 17:48:42
  49.     INDEX 01 17:50:23
  50.   TRACK 08 AUDIO
  51.     TITLE "我、敵機動艦隊ト交戦ス"
  52.     PERFORMER "大越香里"
  53.     ISRC JPW361800014
  54.     INDEX 00 21:17:05
  55.     INDEX 01 21:18:61
  56.   TRACK 09 AUDIO
  57.     TITLE "決戦!鉄底海峡を抜けて"
  58.     PERFORMER "大越香里"
  59.     ISRC JPW361800015
  60.     INDEX 00 24:25:08
  61.     INDEX 01 24:26:64
  62.   TRACK 10 AUDIO
  63.     TITLE "冬の抜錨!"
  64.     PERFORMER "大越香里"
  65.     ISRC JPW361800016
  66.     INDEX 00 27:47:69
  67.     INDEX 01 27:49:50
  68.   TRACK 11 AUDIO
  69.     TITLE "敵超弩級戦艦を叩け!(夜戦アレンジ)"
  70.     PERFORMER "大越香里、岡宮道生"
  71.     ISRC JPW361800017
  72.     INDEX 00 31:22:65
  73.     INDEX 01 31:24:46
  74.   TRACK 12 AUDIO
  75.     TITLE "索敵機、発艦始め!"
  76.     PERFORMER "大越香里"
  77.     ISRC JPW361800018
  78.     INDEX 00 34:41:23
  79.     INDEX 01 34:43:04
  80.   TRACK 13 AUDIO
  81.     TITLE "敵艦隊、見ゆ!"
  82.     PERFORMER "大越香里"
  83.     ISRC JPW361800019
  84.     INDEX 00 38:12:12
  85.     INDEX 01 38:13:68
  86.   TRACK 14 AUDIO
  87.     TITLE "二水戦の航跡"
  88.     PERFORMER "大越香里"
  89.     ISRC JPW361800020
  90.     INDEX 00 42:06:20
  91.     INDEX 01 42:08:01
  92.   TRACK 15 AUDIO
  93.     TITLE "次発装填、再突入!"
  94.     PERFORMER "大越香里"
  95.     ISRC JPW361800021
  96.     INDEX 00 45:06:58
  97.     INDEX 01 45:08:39
  98.   TRACK 16 AUDIO
  99.     TITLE "提督との絆(実装BGM版)"
  100.     PERFORMER "大越香里"
  101.     ISRC JPW361800022
  102.     INDEX 00 49:37:21
  103.     INDEX 01 49:39:02
RAW Paste Data
We use cookies for various purposes including analytics. By continuing to use Pastebin, you agree to our use of cookies as described in the Cookies Policy. OK, I Understand
Not a member of Pastebin yet?
Sign Up, it unlocks many cool features!
 
Top