SHARE
TWEET

Untitled

a guest Jul 18th, 2014 170 Never
Not a member of Pastebin yet? Sign Up, it unlocks many cool features!
  1. HandBrake 0.9.9.5530 - 64bit Version
  2. OS: Microsoft Windows NT 6.1.7601 Service Pack 1
  3. CPU: Intel(R) Core(TM) i3 CPU       M 370  @ 2.40GHz
  4. Ram: 3766 MB, Screen: 1366x768
  5. Temp Dir: C:\Users\Gordon\AppData\Local\Temp\
  6. Install Dir: C:\Program Files\Handbrake
  7. Data Dir: C:\Users\Gordon\AppData\Roaming\HandBrake\HandBrake\0.9.9.5530
  8.  
  9. -------------------------------------------
  10.  
  11. CLI Query:  -i "C:\Users\Gordon\Desktop\france july 2014.wmv" -t 1 --angle 1 --start-at duration:0 --stop-at duration:485 -o "C:\Users\Gordon\Desktop\France July 2014-1.mp4"  -f m4v  -4  -w 854 --loose-anamorphic  --modulus 2 -e x264 -q 20 --vfr -a 1 -E faac -6 dpl2 -R Auto -B 160 -D 0 --gain 0 --audio-fallback ffac3 --markers="C:\Users\Gordon\AppData\Local\Temp\France July 2014-1-1-chapters.csv" --x264-preset=veryfast  --x264-profile=main  --h264-level="4.0"  --verbose=1
  12. User Query: False
  13.  
  14. [14:37:11] hb_init: starting libhb thread
  15. HandBrake 0.9.9 (2013052900) - MinGW x86_64 - http://handbrake.fr
  16. 4 CPUs detected
  17. Opening C:\Users\Gordon\Desktop\france july 2014.wmv...
  18. [14:37:11] hb_scan: path=C:\Users\Gordon\Desktop\france july 2014.wmv, title_index=1
  19. libbluray/bdnav/index_parse.c:162: indx_parse(): error opening C:\Users\Gordon\Desktop\france july 2014.wmv/BDMV/index.bdmv
  20. libbluray/bdnav/index_parse.c:162: indx_parse(): error opening C:\Users\Gordon\Desktop\france july 2014.wmv/BDMV/BACKUP/index.bdmv
  21. libbluray/bluray.c:1725: nav_get_title_list(C:\Users\Gordon\Desktop\france july 2014.wmv) failed (00000000020DD120)
  22. [14:37:11] bd: not a bd - trying as a stream/file instead
  23. libdvdnav: Using dvdnav version 4.1.3
  24. libdvdread: Encrypted DVD support unavailable.
  25. libdvdnav:DVDOpenFileUDF:UDFFindFile /VIDEO_TS/VIDEO_TS.IFO failed
  26. libdvdnav:DVDOpenFileUDF:UDFFindFile /VIDEO_TS/VIDEO_TS.BUP failed
  27. libdvdread: Can't open file VIDEO_TS.IFO.
  28. libdvdnav: vm: failed to read VIDEO_TS.IFO
  29. [14:37:11] dvd: not a dvd - trying as a stream/file instead
  30. Input #0, asf, from 'C:\Users\Gordon\Desktop\france july 2014.wmv':
  31.   Metadata:
  32.     WMFSDKVersion   : 12.0.7601.17514
  33.     WMFSDKNeeded    : 0.0.0.0000
  34.     IsVBR           : 0
  35.   Duration: 00:08:05.75, start: 0.000000, bitrate: 5040 kb/s
  36.     Stream #0.0: Video: mjpeg, yuvj420p, 854x480, 90k tbn
  37.     Metadata:
  38.       comment         : Movie/video screen capture
  39.     Stream #0.1(eng): Audio: wmav2, 48000 Hz, 2 channels, fltp, 192 kb/s
  40.     Stream #0.2(eng): Video: wmv3 (Main), yuv420p, 854x480, 5500 kb/s, 29.97 fps, 29.97 tbr, 1k tbn
  41. [14:37:11] scan: decoding previews for title 1
  42. [14:37:11] scan: audio 0x1: wmav2, rate=48000Hz, bitrate=192000 English (wmav2) (2.0 ch)
  43. [14:37:11] scan: 10 previews, 854x480, 23.976 fps, autocrop = 0/0/0/0, aspect 16:9, PAR 1:1
  44. [14:37:11] libhb: scan thread found 1 valid title(s)
  45. + title 1:
  46.   + stream: C:\Users\Gordon\Desktop\france july 2014.wmv
  47.   + duration: 00:08:05
  48.   + size: 854x480, pixel aspect: 1/1, display aspect: 1.78, 23.976 fps
  49.   + autocrop: 0/0/0/0
  50.   + chapters:
  51.     + 1: cells 0->0, 0 blocks, duration 00:08:05
  52.   + audio tracks:
  53.     + 1, English (wmav2) (2.0 ch) (iso639-2: eng)
  54.   + subtitle tracks:
  55. Reading chapter markers from file C:\Users\Gordon\AppData\Local\Temp\France July 2014-1-1-chapters.csv
  56. [14:37:11] 1 job(s) to process
  57. [14:37:11] starting job
  58. [14:37:11] work: sanitizing track 1 mixdown Dolby Pro Logic II to Stereo
  59. [14:37:11] sync: expecting 11652 video frames
  60. [14:37:11] work: only 1 chapter, disabling chapter markers
  61. [14:37:11] job configuration:
  62. [14:37:11]  * source
  63. [14:37:11]    + C:\Users\Gordon\Desktop\france july 2014.wmv
  64. [14:37:11]    + title 1, start 0:0:0.00 stop 0:8:5.00
  65. [14:37:11]    + container: asf
  66. [14:37:11]    + data rate: 5040 kbps
  67. [14:37:11]  * destination
  68. [14:37:11]    + C:\Users\Gordon\Desktop\France July 2014-1.mp4
  69. [14:37:11]    + container: MPEG-4 (.mp4 and .m4v)
  70. [14:37:11]      + 64-bit formatting
  71. [14:37:11]  * video track
  72. [14:37:11]    + decoder: mjpeg
  73. [14:37:11]    + frame rate: same as source (around 23.976 fps)
  74. [14:37:11]    + filters
  75. [14:37:11]      + Framerate Shaper (0:27000000:1126125)
  76. [14:37:11]        + frame rate: same as source (around 23.976 fps)
  77. [14:37:11]      + Crop and Scale (854:480:0:0:0:0)
  78. [14:37:11]        + source: 854 * 480, crop (0/0/0/0): 854 * 480, scale: 854 * 480
  79. [14:37:11]    + loose anamorphic
  80. [14:37:11]      + storage dimensions: 854 * 480, mod 2
  81. [14:37:11]      + pixel aspect ratio: 1 / 1
  82. [14:37:11]      + display dimensions: 854 * 480
  83. [14:37:11]    + encoder: H.264 (x264)
  84. [14:37:11]      + x264 preset: veryfast
  85. [14:37:11]      + h264 profile: main
  86. [14:37:11]      + h264 level: 4.0
  87. [14:37:11]      + quality: 20.00 (RF)
  88. [14:37:11]  * audio track 1
  89. [14:37:11]    + decoder: English (wmav2) (2.0 ch) (track 1, id 0x1)
  90. [14:37:11]      + bitrate: 192 kbps, samplerate: 48000 Hz
  91. [14:37:11]    + mixdown: Stereo
  92. [14:37:11]    + encoder: AAC (faac)
  93. [14:37:11]      + bitrate: 160 kbps, samplerate: 48000 Hz
  94. [14:37:11] reader: first SCR 0 id 0x1 DTS 0
  95. [14:37:11] encx264: min-keyint: 24, keyint: 240
  96. [14:37:11] encx264: encoding with stored aspect 1/1
  97. [14:37:11] encx264: Encoding at constant RF 20.000000
  98. x264 [warning]: --psnr used with psy on: results will be invalid!
  99. x264 [warning]: --tune psnr should be used if attempting to benchmark psnr!
  100. x264 [info]: using SAR=1/1
  101. x264 [info]: using cpu capabilities: MMX2 SSE2Fast SSSE3 SSE4.2
  102. x264 [info]: profile Main, level 4.0
  103. [14:37:12] sync: audio 0x1 time went backwards 43 ms, dropped 1 frames (start 11430, next 15360)
  104. [14:37:12] sync: adding 126 ms of silence to audio 0x1  start 26730, next 15360
  105. [14:37:40] reader: done. 1 scr changes
  106. [14:37:41] work: average encoding speed for job is 0.000000 fps
  107. [14:37:42] sync: got 0 frames, 11652 expected
  108. [14:37:42] render: lost time: 0 (0 frames)
  109. [14:37:42] render: gained time: 0 (0 frames) (0 not accounted for)
  110. [14:37:42] mjpeg-decoder done: 0 frames, 0 decoder errors, 0 drops
  111. [14:37:42] wmav2-decoder done: 0 frames, 0 decoder errors, 0 drops
  112. [14:37:42] mux: track 0, 0 frames, 0 bytes, 0.00 kbps, fifo 8
  113. [14:37:42] mux: track 1, 22742 frames, 2089130 bytes, 34.45 kbps, fifo 32768
  114. [14:37:42] libhb: work result = 0
  115. Encode done!
  116. HandBrake has exited.
RAW Paste Data
We use cookies for various purposes including analytics. By continuing to use Pastebin, you agree to our use of cookies as described in the Cookies Policy. OK, I Understand
Top