Guest User

Herbie.Fully.Loaded.2005.1080p.BluRay.x264-nikt0

a guest
May 15th, 2019
39
Never
Not a member of Pastebin yet? Sign Up, it unlocks many cool features!
  1. General
  2. Unique ID                                : 133244466443553914536985080851514170354 (0x643DF366A1304498452CBE62C72A9BF2)
  3. Complete name                            : Herbie.Fully.Loaded.2005.1080p.BluRay.x264-nikt0.mkv
  4. Format                                   : Matroska
  5. Format version                           : Version 4
  6. File size                                : 4.37 GiB
  7. Duration                                 : 1 h 40 min
  8. Overall bit rate                         : 6 201 kb/s
  9. Movie name                               : Herbie.Fully.Loaded.2005.1080p.BluRay.x264-nikt0
  10. Encoded date                             : UTC 2019-04-19 21:50:03 / UTC 2019-04-18T19:07:02Z
  11. Writing application                      : mkvmerge v33.1.0 ('Primrose') 64-bit
  12. Writing library                          : libebml v1.3.7 + libmatroska v1.5.0 / Lavf57.7.2
  13.  
  14. Video
  15. ID                                       : 1
  16. Format                                   : AVC
  17. Format/Info                              : Advanced Video Codec
  18. Format profile                           : High@L4
  19. Format settings                          : CABAC / 4 Ref Frames
  20. Format settings, CABAC                   : Yes
  21. Format settings, Reference frames        : 4 frames
  22. Codec ID                                 : V_MPEG4/ISO/AVC
  23. Duration                                 : 1 h 40 min
  24. Bit rate                                 : 5 760 kb/s
  25. Width                                    : 1 920 pixels
  26. Height                                   : 1 080 pixels
  27. Display aspect ratio                     : 16:9
  28. Frame rate mode                          : Constant
  29. Frame rate                               : 23.976 (24000/1001) FPS
  30. Color space                              : YUV
  31. Chroma subsampling                       : 4:2:0
  32. Bit depth                                : 8 bits
  33. Scan type                                : Progressive
  34. Bits/(Pixel*Frame)                       : 0.116
  35. Stream size                              : 3.97 GiB (91%)
  36. Writing library                          : x264 core 155 r2901 7d0ff22
  37. Encoding settings                        : cabac=1 / ref=4 / deblock=1:-3:-3 / analyse=0x3:0x133 / me=umh / subme=9 / psy=1 / psy_rd=1.10:0.25 / mixed_ref=1 / me_range=32 / chroma_me=1 / trellis=2 / 8x8dct=1 / cqm=0 / deadzone=6,6 / fast_pskip=1 / chroma_qp_offset=-4 / threads=24 / lookahead_threads=2 / sliced_threads=0 / nr=0 / decimate=1 / interlaced=0 / bluray_compat=0 / constrained_intra=0 / bframes=6 / b_pyramid=2 / b_adapt=2 / b_bias=0 / direct=3 / weightb=1 / open_gop=0 / weightp=2 / keyint=240 / keyint_min=24 / scenecut=40 / intra_refresh=0 / rc_lookahead=40 / rc=2pass / mbtree=1 / bitrate=5760 / ratetol=1.0 / qcomp=0.60 / qpmin=0 / qpmax=69 / qpstep=4 / cplxblur=20.0 / qblur=0.5 / vbv_maxrate=20000 / vbv_bufsize=25000 / nal_hrd=none / filler=0 / ip_ratio=1.40 / aq=1:1.00
  38. Default                                  : Yes
  39. Forced                                   : No
  40. Color range                              : Limited
  41. Color primaries                          : BT.709
  42. Transfer characteristics                 : BT.709
  43. Matrix coefficients                      : BT.709
  44. Statistics Tags Issue                    : mkvmerge v33.1.0 ('Primrose') 64-bit 2019-04-19 21:50:03 / mkvmerge v33.1.0 ('Primrose') 64-bit 2019-04-19 21:50:03 / UTC 2019-04-18T19:07:02Z
  45. FromStats_BitRate                        : 5750778
  46. FromStats_Duration                       : 01:40:52.380000000
  47. FromStats_FrameCount                     : 145112
  48. FromStats_StreamSize                     : 4350737099
  49.  
  50. Audio
  51. ID                                       : 2
  52. Format                                   : AC-3
  53. Format/Info                              : Audio Coding 3
  54. Commercial name                          : Dolby Digital
  55. Codec ID                                 : A_AC3
  56. Duration                                 : 1 h 40 min
  57. Bit rate mode                            : Constant
  58. Bit rate                                 : 448 kb/s
  59. Channel(s)                               : 6 channels
  60. Channel layout                           : L R C LFE Ls Rs
  61. Sampling rate                            : 48.0 kHz
  62. Frame rate                               : 31.250 FPS (1536 SPF)
  63. Bit depth                                : 16 bits
  64. Compression mode                         : Lossy
  65. Stream size                              : 323 MiB (7%)
  66. Title                                    : Surround
  67. Language                                 : English
  68. Service kind                             : Complete Main
  69. Default                                  : Yes
  70. Forced                                   : No
  71. Statistics Tags Issue                    : mkvmerge v33.1.0 ('Primrose') 64-bit 2019-04-19 21:50:03 / mkvmerge v33.1.0 ('Primrose') 64-bit 2019-04-19 21:50:03 / UTC 2019-04-18T19:07:02Z
  72. FromStats_BitRate                        : 448000
  73. FromStats_Duration                       : 01:40:52.192000000
  74. FromStats_FrameCount                     : 189131
  75. FromStats_StreamSize                     : 338922752
  76.  
  77. Text
  78. ID                                       : 3
  79. Format                                   : UTF-8
  80. Codec ID                                 : S_TEXT/UTF8
  81. Codec ID/Info                            : UTF-8 Plain Text
  82. Language                                 : English
  83. Default                                  : Yes
  84. Forced                                   : No
  85. Statistics Tags Issue                    : mkvmerge v33.1.0 ('Primrose') 64-bit 2019-04-19 21:50:03 / mkvmerge v33.1.0 ('Primrose') 64-bit 2019-04-19 21:50:03 / UTC 2019-04-18T19:07:02Z
  86. FromStats_BitRate                        : 51
  87. FromStats_Duration                       : 01:33:50.917000000
  88. FromStats_FrameCount                     : 1050
  89. FromStats_StreamSize                     : 36530
RAW Paste Data