Guest User

[Commie] Kuzu no Honkai - 03 [DA99ACE9].mkv

a guest
Feb 4th, 2017
62
Never
Not a member of Pastebin yet? Sign Up, it unlocks many cool features!
  1. General
  2. Format : Matroska
  3. Format version : Version 4 / Version 2
  4. File size : 316 MiB
  5. Duration : 22mn 54s
  6. Overall bit rate : 1 930 Kbps
  7. Encoded date : UTC 2017-01-27 01:16:30
  8. Writing application : mkvmerge v9.8.0 ('Kuglblids') 64bit
  9. Writing library : libebml v1.3.4 + libmatroska v1.4.5
  10. Attachements : FONTIN_SANS_0.OTF / FONTIN_SANS_BI_0.OTF / FRADM.TTF / GOUDOSI.TTF / IwaMinPro-Lt-Madoka_0.ttf / Lato-Bol.ttf / Lato-Reg.ttf / DJB Chalk It Up.ttf
  11. DURATION : 00:22:45.960000000
  12. NUMBER_OF_FRAMES : 407
  13. NUMBER_OF_BYTES : 28612
  14. _STATISTICS_WRITING_APP : mkvmerge v9.8.0 ('Kuglblids') 64bit
  15. _STATISTICS_WRITING_DATE_UTC : 2017-01-27 01:16:30
  16. _STATISTICS_TAGS : BPS DURATION NUMBER_OF_FRAMES NUMBER_OF_BYTES
  17.  
  18. Video
  19. ID : 1
  20. Format : AVC
  21. Format/Info : Advanced Video Codec
  22. Format profile : High 10@L5
  23. Format settings, CABAC : Yes
  24. Format settings, ReFrames : 16 frames
  25. Codec ID : V_MPEG4/ISO/AVC
  26. Duration : 22mn 54s
  27. Bit rate : 1 668 Kbps
  28. Width : 1 280 pixels
  29. Height : 720 pixels
  30. Display aspect ratio : 16:9
  31. Frame rate mode : Constant
  32. Frame rate : 23.976 fps
  33. Color space : YUV
  34. Chroma subsampling : 4:2:0
  35. Bit depth : 10 bits
  36. Scan type : Progressive
  37. Bits/(Pixel*Frame) : 0.075
  38. Stream size : 273 MiB (86%)
  39. Writing library : x264 core 148 r2744+55 950084e t_mod_Custom [10-bit@all X86_64]
  40. Encoding settings : cabac=1 / ref=16 / deblock=1:0:0 / analyse=0x3:0x133 / me=umh / subme=10 / psy=1 / fade_compensate=0.70 / psy_rd=0.60:0.15 / mixed_ref=1 / me_range=24 / chroma_me=1 / trellis=2 / 8x8dct=1 / cqm=0 / deadzone=21,11 / fast_pskip=1 / chroma_qp_offset=-3 / threads=6 / lookahead_threads=1 / sliced_threads=0 / nr=0 / decimate=1 / interlaced=0 / bluray_compat=0 / constrained_intra=0 / fgo=0 / bframes=10 / b_pyramid=2 / b_adapt=2 / b_bias=0 / direct=3 / weightb=1 / open_gop=0 / weightp=2 / keyint=250 / keyint_min=23 / scenecut=40 / intra_refresh=0 / rc_lookahead=60 / rc=crf / mbtree=1 / crf=18.0000 / qcomp=0.70 / qpmin=0:0:0 / qpmax=81:81:81 / qpstep=4 / ip_ratio=1.40 / aq=3:0.80 / aq-sensitivity=10.00 / aq-factor=1.00:1.00:1.00 / aq2=0 / aq3=0
  41. Language : English
  42. Default : Yes
  43. Forced : No
  44. DURATION : 00:22:54.916000000
  45. NUMBER_OF_FRAMES : 32965
  46. NUMBER_OF_BYTES : 291673130
  47. _STATISTICS_WRITING_APP : mkvmerge v9.8.0 ('Kuglblids') 64bit
  48. _STATISTICS_WRITING_DATE_UTC : 2017-01-27 01:16:30
  49. _STATISTICS_TAGS : BPS DURATION NUMBER_OF_FRAMES NUMBER_OF_BYTES
  50.  
  51. Audio
  52. ID : 2
  53. Format : E-AC-3
  54. Format/Info : Audio Coding 3
  55. Format settings, Endianness : Big
  56. Codec ID : A_EAC3
  57. Duration : 22mn 54s
  58. Bit rate mode : Constant
  59. Bit rate : 224 Kbps
  60. Channel(s) : 2 channels
  61. Channel positions : Front: L R
  62. Sampling rate : 48.0 KHz
  63. Compression mode : Lossy
  64. Stream size : 36.7 MiB (12%)
  65. Language : Japanese
  66. Default : Yes
  67. Forced : No
  68.  
  69. Text
  70. ID : 3
  71. Format : ASS
  72. Codec ID : S_TEXT/ASS
  73. Codec ID/Info : Advanced Sub Station Alpha
  74. Compression mode : Lossless
  75. Default : Yes
  76. Forced : No
  77.  
  78. Menu
  79. 00:00:00.033 : en:Intro
  80. 00:01:55.010 : en:OP
  81. 00:03:24.970 : en:Part A
  82. 00:08:45.960 : en:Part B
  83. 00:21:24.970 : en:ED
RAW Paste Data