SHARE
TWEET

Weekend.at.Bernies.1989.BluRay.1080p.DTS-HD.MA.2.0.AVC.REMUX-FraMeSToR

a guest Jun 15th, 2019 26 Never
Not a member of Pastebin yet? Sign Up, it unlocks many cool features!
  1. General
  2. Unique ID                                : 94770796012583999657635219534125958622 (0x474C30FEE56343F7FD31775CDEFB85DE)
  3. Complete name                            : Weekend.at.Bernies.1989.BluRay.1080p.DTS-HD.MA.2.0.AVC.REMUX-FraMeSToR.mkv
  4. Format                                   : Matroska
  5. Format version                           : Version 4
  6. File size                                : 19.8 GiB
  7. Duration                                 : 1 h 38 min
  8. Overall bit rate mode                    : Variable
  9. Overall bit rate                         : 28.9 Mb/s
  10. Movie name                               : Weekend at Bernie's
  11. Encoded date                             : UTC 2017-07-31 15:41:02
  12. Writing application                      : mkvmerge v9.6.0 ('Slave To Your Mind') 64bit
  13. Writing library                          : libebml v1.3.4 + libmatroska v1.4.5
  14.  
  15. Video
  16. ID                                       : 1
  17. Format                                   : AVC
  18. Format/Info                              : Advanced Video Codec
  19. Format profile                           : High@L4.1
  20. Format settings                          : CABAC / 2 Ref Frames
  21. Format settings, CABAC                   : Yes
  22. Format settings, Reference frames        : 2 frames
  23. Codec ID                                 : V_MPEG4/ISO/AVC
  24. Duration                                 : 1 h 38 min
  25. Bit rate mode                            : Variable
  26. Bit rate                                 : 26.9 Mb/s
  27. Width                                    : 1 920 pixels
  28. Height                                   : 1 080 pixels
  29. Display aspect ratio                     : 16:9
  30. Frame rate mode                          : Constant
  31. Frame rate                               : 23.976 (24000/1001) FPS
  32. Color space                              : YUV
  33. Chroma subsampling                       : 4:2:0
  34. Bit depth                                : 8 bits
  35. Scan type                                : Progressive
  36. Bits/(Pixel*Frame)                       : 0.541
  37. Stream size                              : 18.5 GiB (93%)
  38. Default                                  : Yes
  39. Forced                                   : No
  40.  
  41. Audio
  42. ID                                       : 2
  43. Format                                   : DTS XLL
  44. Format/Info                              : Digital Theater Systems
  45. Commercial name                          : DTS-HD Master Audio
  46. Codec ID                                 : A_DTS
  47. Duration                                 : 1 h 38 min
  48. Bit rate mode                            : Variable
  49. Bit rate                                 : 1 845 kb/s
  50. Channel(s)                               : 2 channels
  51. Channel layout                           : L R
  52. Sampling rate                            : 48.0 kHz
  53. Frame rate                               : 93.750 FPS (512 SPF)
  54. Bit depth                                : 24 bits
  55. Compression mode                         : Lossless
  56. Stream size                              : 1.27 GiB (6%)
  57. Title                                    : DTS-HD MA 2.0
  58. Language                                 : English
  59. Default                                  : Yes
  60. Forced                                   : No
  61.  
  62. Text #1
  63. ID                                       : 3
  64. Format                                   : PGS
  65. Codec ID                                 : S_HDMV/PGS
  66. Codec ID/Info                            : Picture based subtitle format used on BDs/HD-DVDs
  67. Duration                                 : 1 h 34 min
  68. Bit rate                                 : 50.6 kb/s
  69. Count of elements                        : 3164
  70. Stream size                              : 34.2 MiB (0%)
  71. Title                                    : English (SDH)
  72. Language                                 : English
  73. Default                                  : No
  74. Forced                                   : No
  75.  
  76. Text #2
  77. ID                                       : 4
  78. Format                                   : PGS
  79. Codec ID                                 : S_HDMV/PGS
  80. Codec ID/Info                            : Picture based subtitle format used on BDs/HD-DVDs
  81. Duration                                 : 1 h 34 min
  82. Bit rate                                 : 44.0 kb/s
  83. Count of elements                        : 2770
  84. Stream size                              : 29.7 MiB (0%)
  85. Title                                    : Spanish (Latin American)
  86. Language                                 : Spanish
  87. Default                                  : No
  88. Forced                                   : No
  89.  
  90. Text #3
  91. ID                                       : 5
  92. Format                                   : PGS
  93. Codec ID                                 : S_HDMV/PGS
  94. Codec ID/Info                            : Picture based subtitle format used on BDs/HD-DVDs
  95. Duration                                 : 1 h 34 min
  96. Bit rate                                 : 43.4 kb/s
  97. Count of elements                        : 2810
  98. Stream size                              : 29.2 MiB (0%)
  99. Title                                    : French
  100. Language                                 : French
  101. Default                                  : No
  102. Forced                                   : No
  103.  
  104. Menu
  105. 00:00:00.000                             : en:Main Title/Heat Wave
  106. 00:03:46.893                             : en:Up On The Roof
  107. 00:06:11.788                             : en:Office Space
  108. 00:11:51.210                             : en:High Rise
  109. 00:18:07.586                             : en:The Real Boss
  110. 00:22:02.947                             : en:Impressing The Girl
  111. 00:28:05.934                             : en:Host With The Most
  112. 00:39:18.690                             : en:Party Time
  113. 00:45:09.290                             : en:Over The Edge
  114. 00:50:23.938                             : en:Body Surfing
  115. 00:54:54.541                             : en:Come And Go
  116. 01:01:15.839                             : en:Morning After
  117. 01:13:10.928                             : en:Slippery Slope
  118. 01:17:25.516                             : en:Using Their Heads
  119. 01:25:43.305                             : en:Company They Keep
  120. 01:32:40.305                             : en:On The Beach/End Credits
RAW Paste Data
We use cookies for various purposes including analytics. By continuing to use Pastebin, you agree to our use of cookies as described in the Cookies Policy. OK, I Understand
Not a member of Pastebin yet?
Sign Up, it unlocks many cool features!
 
Top