SHARE
TWEET

2012_The_Perks_Of_Being_A_Wallflower_Blu-Ray_1080P_DuaL_X265

ChrisHD13 Jul 11th, 2019 75 Never
Not a member of Pastebin yet? Sign Up, it unlocks many cool features!
  1. Complete name               : E:\Rips\2012_The_Perks_Of_Being_A_Wallflower_Blu-Ray_1080P_DuaL_X265_10Bits_ChrisHD.mkv
  2. Format                      : Matroska
  3. Format version              : Version 4 / Version 2
  4. File size                   : 11.2 GiB
  5. Duration                    : 1 h 42 min
  6. Overall bit rate            : 15.6 Mb/s
  7. Encoded date                : UTC 2017-11-28 03:40:08
  8. Writing application         : mkvmerge v16.0.0 ('Protest') 64-bit
  9. Writing library             : libebml v1.3.5 + libmatroska v1.4.8
  10.  
  11. Video
  12. ID                          : 1
  13. Format                      : HEVC
  14. Format/Info                 : High Efficiency Video Coding
  15. Format profile              : Main 10@L4@Main
  16. Codec ID                    : V_MPEGH/ISO/HEVC
  17. Duration                    : 1 h 42 min
  18. Bit rate                    : 13.4 Mb/s
  19. Width                       : 1 920 pixels
  20. Height                      : 1 080 pixels
  21. Display aspect ratio        : 16:9
  22. Frame rate mode             : Constant
  23. Frame rate                  : 23.976 (24000/1001) FPS
  24. Color space                 : YUV
  25. Chroma subsampling          : 4:2:0
  26. Bit depth                   : 10 bits
  27. Bits/(Pixel*Frame)          : 0.270
  28. Stream size                 : 9.63 GiB (86%)
  29. Title                       : BD50 - ChrisHD
  30. Writing library             : x265 2.5+2-18fa144d453e:[Windows][GCC 7.1.0][64 bit] 10bit
  31. Encoding settings           : cpuid=1173503 / frame-threads=3 / numa-pools=8 / wpp / no-pmode / no-pme / no-psnr / no-ssim / log-level=2 / input-csp=1 / input-res=1920x1080 / interlace=0 / total-frames=147696 / level-idc=0 / high-tier=1 / uhd-bd=0 / ref=4 / no-allow-non-conformance / no-repeat-headers / annexb / no-aud / no-hrd / info / hash=0 / no-temporal-layers / open-gop / min-keyint=23 / keyint=250 / bframes=8 / b-adapt=2 / b-pyramid / bframe-bias=0 / rc-lookahead=40 / lookahead-slices=4 / scenecut=40 / no-intra-refresh / ctu=64 / min-cu-size=8 / rect / no-amp / max-tu-size=32 / tu-inter-depth=1 / tu-intra-depth=1 / limit-tu=0 / rdoq-level=2 / dynamic-rd=0.00 / no-ssim-rd / signhide / no-tskip / nr-intra=0 / nr-inter=0 / no-constrained-intra / strong-intra-smoothing / max-merge=3 / limit-refs=3 / limit-modes / me=3 / subme=3 / merange=57 / temporal-mvp / weightp / no-weightb / no-analyze-src-pics / deblock=-2:-2 / no-sao / no-sao-non-deblock / rd=6 / no-early-skip / rskip / no-fast-intra / no-tskip-fast / no-cu-lossless / no-b-intra / rdpenalty=0 / psy-rd=2.00 / psy-rdoq=1.00 / no-rd-refine / analysis-reuse-mode=0 / no-lossless / cbqpoffs=0 / crqpoffs=0 / rc=crf / crf=20.0 / qcomp=0.60 / qpstep=4 / stats-write=0 / stats-read=0 / ipratio=1.40 / pbratio=1.30 / aq-mode=1 / aq-strength=1.00 / cutree / zone-count=0 / no-strict-cbr / qg-size=32 / no-rc-grain / qpmax=69 / qpmin=0 / no-const-vbv / sar=1 / overscan=0 / videoformat=5 / range=0 / colorprim=2 / transfer=2 / colormatrix=2 / chromaloc=0 / display-window=0 / max-cll=0,0 / min-luma=0 / max-luma=1023 / log2-max-poc-lsb=8 / vui-timing-info / vui-hrd-info / slices=1 / opt-qp-pps / opt-ref-list-length-pps / no-multi-pass-opt-rps / scenecut-bias=0.05 / no-opt-cu-delta-qp / no-aq-motion / no-hdr / no-hdr-opt / no-dhdr10-opt / analysis-reuse-level=5 / scale-factor=0 / refine-intra=0 / refine-inter=0 / refine-mv=0 / no-limit-sao / ctu-info=0
  32. Default                     : Yes
  33. Forced                      : No
  34.  
  35. Audio #1
  36. ID                          : 2
  37. Format                      : DTS
  38. Format/Info                 : Digital Theater Systems
  39. Codec ID                    : A_DTS
  40. Duration                    : 1 h 42 min
  41. Bit rate mode               : Constant
  42. Bit rate                    : 1 509 kb/s
  43. Channel(s)                  : 6 channels
  44. Channel positions           : Front: L C R, Side: L R, LFE
  45. Sampling rate               : 48.0 kHz
  46. Frame rate                  : 93.750 FPS (512 SPF)
  47. Bit depth                   : 24 bits
  48. Compression mode            : Lossy
  49. Stream size                 : 1.08 GiB (10%)
  50. Title                       : Ingles - ChrisHD
  51. Language                    : English
  52. Default                     : Yes
  53. Forced                      : No
  54.  
  55. Audio #2
  56. ID                          : 3
  57. Format                      : AC-3
  58. Format/Info                 : Audio Coding 3
  59. Codec ID                    : A_AC3
  60. Duration                    : 1 h 42 min
  61. Bit rate mode               : Constant
  62. Bit rate                    : 640 kb/s
  63. Channel(s)                  : 6 channels
  64. Channel positions           : Front: L C R, Side: L R, LFE
  65. Sampling rate               : 48.0 kHz
  66. Frame rate                  : 31.250 FPS (1536 SPF)
  67. Bit depth                   : 16 bits
  68. Compression mode            : Lossy
  69. Stream size                 : 470 MiB (4%)
  70. Title                       : Latino - ChrisHD
  71. Language                    : Spanish
  72. Service kind                : Complete Main
  73. Default                     : No
  74. Forced                      : No
  75.  
  76. Text #1
  77. ID                          : 4
  78. Format                      : UTF-8
  79. Codec ID                    : S_TEXT/UTF8
  80. Codec ID/Info               : UTF-8 Plain Text
  81. Duration                    : 1 h 37 min
  82. Bit rate                    : 54 b/s
  83. Count of elements           : 1468
  84. Stream size                 : 39.0 KiB (0%)
  85. Title                       : Latino - ChrisHD [SRT]
  86. Language                    : Spanish
  87. Default                     : Yes
  88. Forced                      : No
  89.  
  90. Text #2
  91. ID                          : 5
  92. Format                      : PGS
  93. Muxing mode                 : zlib
  94. Codec ID                    : S_HDMV/PGS
  95. Codec ID/Info               : Picture based subtitle format used on BDs/HD-DVDs
  96. Duration                    : 1 h 37 min
  97. Bit rate                    : 57.4 kb/s
  98. Count of elements           : 2961
  99. Stream size                 : 40.2 MiB (0%)
  100. Title                       : Latino - ChrisHD [PGS]
  101. Language                    : Spanish
  102. Default                     : No
  103. Forced                      : No
  104.  
  105. Menu
  106. 00:00:00.000                : en:00:00:00.000
  107. 00:05:04.387                : en:00:05:04.387
  108. 00:10:24.624                : en:00:10:24.624
  109. 00:17:06.984                : en:00:17:06.984
  110. 00:21:38.005                : en:00:21:38.005
  111. 00:28:31.501                : en:00:28:31.501
  112. 00:33:09.070                : en:00:33:09.070
  113. 00:39:55.351                : en:00:39:55.351
  114. 00:47:17.001                : en:00:47:17.001
  115. 00:54:38.859                : en:00:54:38.859
  116. 00:58:15.951                : en:00:58:15.951
  117. 01:03:17.961                : en:01:03:17.961
  118. 01:10:13.126                : en:01:10:13.126
  119. 01:18:31.790                : en:01:18:31.790
  120. 01:23:11.612                : en:01:23:11.612
  121. 01:31:12.384                : en:01:31:12.384
RAW Paste Data
We use cookies for various purposes including analytics. By continuing to use Pastebin, you agree to our use of cookies as described in the Cookies Policy. OK, I Understand
 
Top