SHARE
TWEET

Untitled

a guest Oct 6th, 2017 13 Never
Not a member of Pastebin yet? Sign Up, it unlocks many cool features!
  1. General
  2. Format                         : MPEG-4
  3. Format profile                 : Base Media
  4. Codec ID                       : iso4 (iso4/hvc1/iso6)
  5. File size                      : 305 MiB
  6. Duration                       : 1 h 38 min
  7. Overall bit rate mode          : Variable
  8. Overall bit rate               : 432 kb/s
  9. Encoded date                   : UTC 2017-04-15 02:07:14
  10. Tagged date                    : UTC 2017-04-15 02:07:14
  11.  
  12. Video
  13. ID                             : 2
  14. Format                         : HEVC
  15. Format/Info                    : High Efficiency Video Coding
  16. Format profile                 : Main@L4@Main
  17. Codec ID                       : hvc1
  18. Codec ID/Info                  : High Efficiency Video Coding
  19. Duration                       : 1 h 38 min
  20. Source duration                : 1 h 38 min
  21. Bit rate                       : 363 kb/s
  22. Maximum bit rate               : 9 322 kb/s
  23. Width                          : 1 920 pixels
  24. Height                         : 816 pixels
  25. Display aspect ratio           : 2.40:1
  26. Frame rate mode                : Constant
  27. Frame rate                     : 23.976 (24000/1001) FPS
  28. Color space                    : YUV
  29. Chroma subsampling             : 4:2:0
  30. Bit depth                      : 8 bits
  31. Bits/(Pixel*Frame)             : 0.010
  32. Stream size                    : 257 MiB (84%)
  33. Source stream size             : 257 MiB (84%)
  34. Title                          : 2014.BluRay.mkv.hevc@GPAC0.6.2-DEV-rev470-gd7c9205-master
  35. Writing library                : x265 1.9+108-5b01678f6fb4:[Windows][GCC 5.3.1][32 bit] 8bit
  36. Encoding settings              : wpp / ctu=64 / min-cu-size=8 / max-tu-size=32 / tu-intra-depth=1 / tu-inter-depth=1 / me=1 / subme=2 / merange=57 / no-rect / no-amp / max-merge=2 / temporal-mvp / no-early-skip / rdpenalty=0 / no-tskip / no-tskip-fast / strong-intra-smoothing / no-lossless / no-cu-lossless / no-constrained-intra / no-fast-intra / open-gop / no-temporal-layers / interlace=0 / keyint=250 / min-keyint=23 / scenecut=40 / rc-lookahead=20 / lookahead-slices=5 / bframes=4 / bframe-bias=0 / b-adapt=2 / ref=3 / limit-refs=3 / no-limit-modes / weightp / no-weightb / aq-mode=1 / qg-size=32 / aq-strength=1.00 / cbqpoffs=0 / crqpoffs=0 / rd=3 / psy-rd=2.00 / rdoq-level=0 / psy-rdoq=0.00 / no-rd-refine / signhide / deblock / sao / no-sao-non-deblock / b-pyramid / cutree / no-intra-refresh / rc=crf / crf=28.0 / qcomp=0.60 / qpmin=0 / qpmax=51 / qpstep=4 / ipratio=1.40 / pbratio=1.30
  37. Encoded date                   : UTC 2017-04-15 02:07:17
  38. Tagged date                    : UTC 2017-04-15 02:07:50
  39.  
  40. Audio
  41. ID                             : 1
  42. Format                         : AAC
  43. Format/Info                    : Advanced Audio Codec
  44. Format profile                 : LC
  45. Codec ID                       : 40
  46. Duration                       : 1 h 38 min
  47. Duration_LastFrame             : -20 ms
  48. Bit rate mode                  : Variable
  49. Bit rate                       : 64.5 kb/s
  50. Maximum bit rate               : 154 kb/s
  51. Channel(s)                     : 2 channels
  52. Channel positions              : Front: L R
  53. Sampling rate                  : 48.0 kHz
  54. Frame rate                     : 46.875 FPS (1024 SPF)
  55. Compression mode               : Lossy
  56. Stream size                    : 45.6 MiB (15%)
  57. Encoded date                   : UTC 2017-04-15 02:05:22
  58. Tagged date                    : UTC 2017-04-15 02:07:50
RAW Paste Data
We use cookies for various purposes including analytics. By continuing to use Pastebin, you agree to our use of cookies as described in the Cookies Policy. OK, I Understand
Not a member of Pastebin yet?
Sign Up, it unlocks many cool features!
 
Top