Ledger Nano X - The secure hardware wallet
SHARE
TWEET

Untitled

a guest Jan 3rd, 2019 78 Never
Not a member of Pastebin yet? Sign Up, it unlocks many cool features!
  1. 2019-01-02 21:12:58.458
  2. Application version: 3.5.3.0
  3.  
  4. http://10.0.0.214:8096/emby/videos/1d783f2f0aa9c6156239546dcc8f347b/hls1/main/166.ts?DeviceId=1a5bcd8facdf36f5&MediaSourceId=1d783f2f0aa9c6156239546dcc8f347b&VideoCodec=h264,mpeg2video,hevc,h265&AudioCodec=ac3,eac3,dts,dca,dtshd,truehd,aac,mp3&AudioStreamIndex=1&SubtitleStreamIndex=3&VideoBitrate=109616000&AudioBitrate=384000&PlaySessionId=d6207ef460724ed4b4cd449b022a8741&api_key=31a0fca06d204adcbec737ef6bb8a723&SubtitleMethod=Encode&CopyTimestamps=true&RequireAvc=false&Tag=903e7f7e950e2cfba482e356afddc900&SegmentContainer=ts&MinSegments=2&BreakOnNonKeyFrames=True&h264-profile=high,main,baseline,constrainedbaseline&h264-level=52&hevc-profile=Main,Main10&ac3-audiochannels=8&eac3-audiochannels=8&dts-audiochannels=8&dca-audiochannels=8&dtshd-audiochannels=8&truehd-audiochannels=8&aac-audiochannels=8&mp3-audiochannels=8&TranscodeReasons=VideoCodecNotSupported,AudioCodecNotSupported
  5.  
  6. {"Protocol":"File","Id":"1d783f2f0aa9c6156239546dcc8f347b","Path":"\\\\SAN1\\media\\Movies\\Transformers (2007)\\movie.mkv","Type":"Default","Container":"mkv,webm","Name":"movie","IsRemote":false,"ETag":"903e7f7e950e2cfba482e356afddc900","RunTimeTicks":86073278464,"ReadAtNativeFramerate":false,"IgnoreDts":false,"IgnoreIndex":false,"GenPtsInput":false,"SupportsTranscoding":true,"SupportsDirectStream":true,"SupportsDirectPlay":true,"IsInfiniteStream":false,"RequiresOpening":false,"RequiresClosing":false,"RequiresLooping":false,"SupportsProbing":true,"VideoType":"VideoFile","MediaStreams":[{"Codec":"h264","Language":"eng","ColorTransfer":"bt709","ColorPrimaries":"bt709","ColorSpace":"bt709","TimeBase":"1/1000","CodecTimeBase":"1001/48000","Title":"1920x1080p AVC (31427 kbps)","VideoRange":"SDR","DisplayTitle":"1080P H264","NalLengthSize":"4","IsInterlaced":false,"IsAVC":true,"BitRate":35203833,"BitDepth":8,"RefFrames":1,"IsDefault":true,"IsForced":false,"Height":1080,"Width":1920,"AverageFrameRate":23.9760246,"RealFrameRate":23.9760246,"Profile":"High","Type":"Video","AspectRatio":"16:9","Index":0,"IsExternal":false,"IsTextSubtitleStream":false,"SupportsExternalStream":false,"PixelFormat":"yuv420p","Level":41},{"Codec":"flac","Language":"eng","TimeBase":"1/1000","CodecTimeBase":"1/48000","Title":"FLAC 5.1 (3571 kbps 24/48)","DisplayTitle":"Eng FLAC 5.1 Default","IsInterlaced":false,"ChannelLayout":"5.1","BitDepth":24,"Channels":6,"SampleRate":48000,"IsDefault":true,"IsForced":false,"Type":"Audio","Index":1,"IsExternal":false,"IsTextSubtitleStream":false,"SupportsExternalStream":false,"Level":0},{"Codec":"ac3","Language":"eng","TimeBase":"1/1000","CodecTimeBase":"1/48000","Title":"Commentary","DisplayTitle":"Eng Dolby Digital stereo","IsInterlaced":false,"ChannelLayout":"stereo","BitRate":192000,"Channels":2,"SampleRate":48000,"IsDefault":false,"IsForced":false,"Type":"Audio","Index":2,"IsExternal":false,"IsTextSubtitleStream":false,"SupportsExternalStream":false,"Level":0},{"Codec":"PGSSUB","Language":"eng","TimeBase":"1/1000","CodecTimeBase":"0/1","Title":"PGS","DisplayTitle":"Eng","IsInterlaced":false,"IsDefault":false,"IsForced":false,"Type":"Subtitle","Index":3,"IsExternal":false,"IsTextSubtitleStream":false,"SupportsExternalStream":false,"Level":0}],"Formats":[],"Bitrate":35203833,"RequiredHttpHeaders":{}}
  7.  
  8. User policy for Eric: EnablePlaybackRemuxing: True EnableVideoPlaybackTranscoding: True EnableAudioPlaybackTranscoding: True
  9.  
  10. C:\Users\Administrator\AppData\Roaming\Emby-Server\system\ffmpeg.exe -ss 00:08:18.000 -f matroska,webm -i file:"\\SAN1\media\Movies\Transformers (2007)\movie.mkv" -threads 0 -map 0:0 -map 0:1 -codec:v:0 libx264 -filter_complex "[0:3]scale=1920:1080:force_original_aspect_ratio=decrease[sub];[0:0][sub]overlay" -pix_fmt yuv420p -preset veryfast -crf 20 -maxrate 35203833 -bufsize 70407666 -profile:v high -level 4.1 -x264opts:0 subme=0:me_range=4:rc_lookahead=10:me=dia:no_chroma_me:8x8dct=0:partitions=none -force_key_frames "expr:if(isnan(prev_forced_t),eq(t,t),gte(t,prev_forced_t+3))" -copyts -vsync -1 -codec:a:0 ac3 -ac 6 -ab 384000  -f segment -max_delay 5000000 -avoid_negative_ts disabled -map_metadata -1 -map_chapters -1 -start_at_zero -segment_time 3 -segment_time_delta -498 -individual_header_trailer 0 -segment_format mpegts -segment_list_type m3u8 -segment_start_number 166 -segment_list "C:\Users\Administrator\AppData\Roaming\Emby-Server\transcoding-temp\20461b4a807c58d46a13f595ab8b575c.m3u8" -y "C:\Users\Administrator\AppData\Roaming\Emby-Server\transcoding-temp\20461b4a807c58d46a13f595ab8b575c%d.ts"
  11.  
  12. ffmpeg version 4.0.1 Copyright (c) 2000-2018 the FFmpeg developers
  13.   built with gcc 7.3.1 (GCC) 20180710
  14.   configuration: --enable-gpl --enable-version3 --enable-sdl2 --enable-bzlib --enable-fontconfig --enable-gnutls --enable-iconv --enable-libass --enable-libbluray --enable-libfreetype --enable-libmp3lame --enable-libopencore-amrnb --enable-libopencore-amrwb --enable-libopenjpeg --enable-libopus --enable-libshine --enable-libsnappy --enable-libsoxr --enable-libtheora --enable-libtwolame --enable-libvpx --enable-libwavpack --enable-libwebp --enable-libx264 --enable-libx265 --enable-libxml2 --enable-libzimg --enable-lzma --enable-zlib --enable-gmp --enable-libvidstab --enable-libvorbis --enable-libvo-amrwbenc --enable-libmysofa --enable-libspeex --enable-libxvid --enable-libaom --enable-libmfx --enable-amf --enable-ffnvcodec --enable-cuvid --enable-d3d11va --enable-nvenc --enable-nvdec --enable-dxva2 --enable-avisynth
  15.   libavutil      56. 14.100 / 56. 14.100
  16.   libavcodec     58. 18.100 / 58. 18.100
  17.   libavformat    58. 12.100 / 58. 12.100
  18.   libavdevice    58.  3.100 / 58.  3.100
  19.   libavfilter     7. 16.100 /  7. 16.100
  20.   libswscale      5.  1.100 /  5.  1.100
  21.   libswresample   3.  1.100 /  3.  1.100
  22.   libpostproc    55.  1.100 / 55.  1.100
  23. [matroska,webm @ 000000c8347ce6c0] Could not find codec parameters for stream 3 (Subtitle: hdmv_pgs_subtitle (pgssub)): unspecified size
  24. Consider increasing the value for the 'analyzeduration' and 'probesize' options
  25. Input #0, matroska,webm, from 'file:\\SAN1\media\Movies\Transformers (2007)\movie.mkv':
  26.   Metadata:
  27.     title           : Transformers (2007)
  28.     encoder         : libebml v1.2.3 + libmatroska v1.3.0
  29.     creation_time   : 2012-08-13T02:49:22.000000Z
  30.   Duration: 02:23:27.33, start: 0.000000, bitrate: 35203 kb/s
  31.     Chapter #0:0: start 0.000000, end 124.708000
  32.     Metadata:
  33.       title           : 00:00:00.000
  34.     Chapter #0:1: start 124.708000, end 534.534000
  35.     Metadata:
  36.       title           : 00:02:04.708
  37.     Chapter #0:2: start 534.534000, end 933.641000
  38.     Metadata:
  39.       title           : 00:08:54.534
  40.     Chapter #0:3: start 933.641000, end 1341.382000
  41.     Metadata:
  42.       title           : 00:15:33.641
  43.     Chapter #0:4: start 1341.382000, end 1662.661000
  44.     Metadata:
  45.       title           : 00:22:21.382
  46.     Chapter #0:5: start 1662.661000, end 2005.378000
  47.     Metadata:
  48.       title           : 00:27:42.661
  49.     Chapter #0:6: start 2005.378000, end 2338.002000
  50.     Metadata:
  51.       title           : 00:33:25.378
  52.     Chapter #0:7: start 2338.002000, end 2713.920000
  53.     Metadata:
  54.       title           : 00:38:58.002
  55.     Chapter #0:8: start 2713.920000, end 3106.437000
  56.     Metadata:
  57.       title           : 00:45:13.920
  58.     Chapter #0:9: start 3106.437000, end 3524.688000
  59.     Metadata:
  60.       title           : 00:51:46.437
  61.     Chapter #0:10: start 3524.688000, end 4008.421000
  62.     Metadata:
  63.       title           : 00:58:44.688
  64.     Chapter #0:11: start 4008.421000, end 4313.559000
  65.     Metadata:
  66.       title           : 01:06:48.421
  67.     Chapter #0:12: start 4313.559000, end 4616.445000
  68.     Metadata:
  69.       title           : 01:11:53.559
  70.     Chapter #0:13: start 4616.445000, end 5017.346000
  71.     Metadata:
  72.       title           : 01:16:56.445
  73.     Chapter #0:14: start 5017.346000, end 5344.172000
  74.     Metadata:
  75.       title           : 01:23:37.346
  76.     Chapter #0:15: start 5344.172000, end 5788.741000
  77.     Metadata:
  78.       title           : 01:29:04.172
  79.     Chapter #0:16: start 5788.741000, end 6238.107000
  80.     Metadata:
  81.       title           : 01:36:28.741
  82.     Chapter #0:17: start 6238.107000, end 6585.746000
  83.     Metadata:
  84.       title           : 01:43:58.107
  85.     Chapter #0:18: start 6585.746000, end 7014.007000
  86.     Metadata:
  87.       title           : 01:49:45.746
  88.     Chapter #0:19: start 7014.007000, end 7389.882000
  89.     Metadata:
  90.       title           : 01:56:54.007
  91.     Chapter #0:20: start 7389.882000, end 7843.919000
  92.     Metadata:
  93.       title           : 02:03:09.882
  94.     Chapter #0:21: start 7843.919000, end 8102.303000
  95.     Metadata:
  96.       title           : 02:10:43.919
  97.     Chapter #0:22: start 8102.303000, end 8607.328000
  98.     Metadata:
  99.       title           : 02:15:02.303
  100.     Stream #0:0(eng): Video: h264 (High), yuv420p(tv, bt709, progressive), 1920x1080 [SAR 1:1 DAR 16:9], 23.98 fps, 23.98 tbr, 1k tbn, 47.95 tbc (default)
  101.     Metadata:
  102.       title           : 1920x1080p AVC (31427 kbps)
  103.     Stream #0:1(eng): Audio: flac, 48000 Hz, 5.1(side), s32 (24 bit) (default)
  104.     Metadata:
  105.       title           : FLAC 5.1 (3571 kbps 24/48)
  106.     Stream #0:2(eng): Audio: ac3, 48000 Hz, stereo, fltp, 192 kb/s
  107.     Metadata:
  108.       title           : Commentary
  109.     Stream #0:3(eng): Subtitle: hdmv_pgs_subtitle
  110.     Metadata:
  111.       title           : PGS
  112. Stream mapping:
  113.   Stream #0:0 (h264) -> overlay:main (graph 0)
  114.   Stream #0:3 (pgssub) -> scale (graph 0)
  115.   overlay (graph 0) -> Stream #0:0 (libx264)
  116.   Stream #0:1 -> #0:1 (flac (native) -> ac3 (native))
  117. Press [q] to stop, [?] for help
  118. [matroska,webm @ 000000c8347ce6c0] sub2video: using 1920x1080 canvas
  119. [libx264 @ 000000c83489e900] using SAR=1/1
  120. [libx264 @ 000000c83489e900] VBV buffer (70407) > level limit (62500)
  121. [libx264 @ 000000c83489e900] using cpu capabilities: MMX2 SSE2Fast SSSE3 SSE4.2 AVX
  122. [libx264 @ 000000c83489e900] profile Main, level 4.1
  123. [libx264 @ 000000c83489e900] 264 - core 155 r2901 7d0ff22 - H.264/MPEG-4 AVC codec - Copyleft 2003-2018 - http://www.videolan.org/x264.html - options: cabac=1 ref=1 deblock=1:0:0 analyse=0x1:0 me=dia subme=0 psy=1 psy_rd=1.00:0.00 mixed_ref=0 me_range=4 chroma_me=0 trellis=0 8x8dct=0 cqm=0 deadzone=21,11 fast_pskip=1 chroma_qp_offset=0 threads=3 lookahead_threads=1 sliced_threads=0 nr=0 decimate=1 interlaced=0 bluray_compat=0 constrained_intra=0 bframes=3 b_pyramid=2 b_adapt=1 b_bias=0 direct=1 weightb=1 open_gop=0 weightp=1 keyint=250 keyint_min=23 scenecut=40 intra_refresh=0 rc_lookahead=10 rc=crf mbtree=1 crf=20.0 qcomp=0.60 qpmin=0 qpmax=69 qpstep=4 vbv_maxrate=35203 vbv_bufsize=70407 crf_max=0.0 nal_hrd=none filler=0 ip_ratio=1.40 aq=1:1.00
  124. [segment @ 000000c835259ec0] Opening 'C:\Users\Administrator\AppData\Roaming\Emby-Server\transcoding-temp\20461b4a807c58d46a13f595ab8b575c166.ts' for writing
  125. Output #0, segment, to 'C:\Users\Administrator\AppData\Roaming\Emby-Server\transcoding-temp\20461b4a807c58d46a13f595ab8b575c%d.ts':
  126.   Metadata:
  127.     encoder         : Lavf58.12.100
  128.     Stream #0:0: Video: h264 (libx264), yuv420p, 1920x1080 [SAR 1:1 DAR 16:9], q=-1--1, 23.98 fps, 90k tbn, 23.98 tbc (default)
  129.     Metadata:
  130.       encoder         : Lavc58.18.100 libx264
  131.     Side data:
  132.       cpb: bitrate max/min/avg: 35203000/0/0 buffer size: 70407000 vbv_delay: -1
  133.     Stream #0:1: Audio: ac3, 48000 Hz, 5.1, fltp (24 bit), 384 kb/s (default)
  134.     Metadata:
  135.       encoder         : Lavc58.18.100 ac3
  136. frame=   13 fps=0.0 q=0.0 size=N/A time=00:08:18.92 bitrate=N/A speed= 968x    
  137. frame=   27 fps= 26 q=23.0 size=N/A time=00:08:19.33 bitrate=N/A speed= 484x    
  138. frame=   40 fps= 26 q=25.0 size=N/A time=00:08:19.94 bitrate=N/A speed= 320x    
  139. frame=   52 fps= 25 q=25.0 size=N/A time=00:08:20.55 bitrate=N/A speed= 237x    
  140. frame=   64 fps= 25 q=25.0 size=N/A time=00:08:20.87 bitrate=N/A speed= 192x    
  141. frame=   79 fps= 25 q=25.0 size=N/A time=00:08:21.57 bitrate=N/A speed= 158x    
  142. [segment @ 000000c835259ec0] Opening 'C:\Users\Administrator\AppData\Roaming\Emby-Server\transcoding-temp\20461b4a807c58d46a13f595ab8b575c.m3u8.tmp' for writing
  143. [segment @ 000000c835259ec0] Opening 'C:\Users\Administrator\AppData\Roaming\Emby-Server\transcoding-temp\20461b4a807c58d46a13f595ab8b575c167.ts' for writing
  144. frame=   91 fps= 25 q=25.0 size=N/A time=00:08:21.99 bitrate=N/A speed= 136x    
  145. frame=  103 fps= 25 q=25.0 size=N/A time=00:08:22.41 bitrate=N/A speed= 120x    
  146. frame=  116 fps= 25 q=25.0 size=N/A time=00:08:23.11 bitrate=N/A speed= 106x    
  147. frame=  127 fps= 24 q=25.0 size=N/A time=00:08:23.43 bitrate=N/A speed=96.2x    
  148. frame=  140 fps= 24 q=25.0 size=N/A time=00:08:24.04 bitrate=N/A speed=87.4x    
  149. frame=  152 fps= 24 q=25.0 size=N/A time=00:08:24.65 bitrate=N/A speed=80.5x    
  150. [segment @ 000000c835259ec0] Opening 'C:\Users\Administrator\AppData\Roaming\Emby-Server\transcoding-temp\20461b4a807c58d46a13f595ab8b575c.m3u8.tmp' for writing
  151. [segment @ 000000c835259ec0] Opening 'C:\Users\Administrator\AppData\Roaming\Emby-Server\transcoding-temp\20461b4a807c58d46a13f595ab8b575c168.ts' for writing
  152. frame=  163 fps= 24 q=25.0 size=N/A time=00:08:25.06 bitrate=N/A speed=74.7x    
  153. frame=  175 fps= 24 q=25.0 size=N/A time=00:08:25.48 bitrate=N/A speed=69.4x    
  154. frame=  189 fps= 24 q=25.0 size=N/A time=00:08:26.09 bitrate=N/A speed=64.7x    
  155. frame=  203 fps= 24 q=25.0 size=N/A time=00:08:26.69 bitrate=N/A speed=60.7x    
  156. frame=  218 fps= 25 q=25.0 size=N/A time=00:08:27.37 bitrate=N/A speed=57.1x    
  157. frame=  228 fps= 24 q=25.0 size=N/A time=00:08:27.72 bitrate=N/A speed=53.7x    
  158. [segment @ 000000c835259ec0] Opening 'C:\Users\Administrator\AppData\Roaming\Emby-Server\transcoding-temp\20461b4a807c58d46a13f595ab8b575c.m3u8.tmp' for writing
  159. [segment @ 000000c835259ec0] Opening 'C:\Users\Administrator\AppData\Roaming\Emby-Server\transcoding-temp\20461b4a807c58d46a13f595ab8b575c169.ts' for writing
  160. frame=  241 fps= 24 q=25.0 size=N/A time=00:08:28.13 bitrate=N/A speed=50.7x    
  161. frame=  255 fps= 24 q=25.0 size=N/A time=00:08:28.74 bitrate=N/A speed=48.3x    
  162. frame=  265 fps= 24 q=25.0 size=N/A time=00:08:29.32 bitrate=N/A speed=46.1x    
  163. frame=  279 fps= 24 q=25.0 size=N/A time=00:08:29.77 bitrate=N/A speed=44.1x    
  164. frame=  295 fps= 24 q=25.0 size=N/A time=00:08:30.60 bitrate=N/A speed=42.2x    
  165. [segment @ 000000c835259ec0] Opening 'C:\Users\Administrator\AppData\Roaming\Emby-Server\transcoding-temp\20461b4a807c58d46a13f595ab8b575c.m3u8.tmp' for writing
  166. [segment @ 000000c835259ec0] Opening 'C:\Users\Administrator\AppData\Roaming\Emby-Server\transcoding-temp\20461b4a807c58d46a13f595ab8b575c170.ts' for writing
  167. [segment @ 000000c835259ec0] Opening 'C:\Users\Administrator\AppData\Roaming\Emby-Server\transcoding-temp\20461b4a807c58d46a13f595ab8b575c.m3u8.tmp' for writing
  168. frame=  304 fps= 24 q=-1.0 Lsize=N/A time=00:08:30.85 bitrate=N/A speed=40.7x    
  169. video:27839kB audio:603kB subtitle:0kB other streams:0kB global headers:0kB muxing overhead: unknown
  170. [libx264 @ 000000c83489e900] frame I:17    Avg QP:15.25  size:174787
  171. [libx264 @ 000000c83489e900] frame P:129   Avg QP:18.09  size:102837
  172. [libx264 @ 000000c83489e900] frame B:158   Avg QP:20.78  size: 77649
  173. [libx264 @ 000000c83489e900] consecutive B-frames: 23.7% 18.4%  7.9% 50.0%
  174. [libx264 @ 000000c83489e900] mb I  I16..4: 48.0%  0.0% 52.0%
  175. [libx264 @ 000000c83489e900] mb P  I16..4: 49.5%  0.0%  0.0%  P16..4: 22.1%  0.0%  0.0%  0.0%  0.0%    skip:28.4%
  176. [libx264 @ 000000c83489e900] mb B  I16..4: 13.8%  0.0%  0.0%  B16..8: 37.4%  0.0%  0.0%  direct:15.2%  skip:33.6%  L0:31.1% L1:42.1% BI:26.8%
  177. [libx264 @ 000000c83489e900] coded y,uvDC,uvAC intra: 68.2% 80.4% 65.7% inter: 34.9% 40.7% 11.1%
  178. [libx264 @ 000000c83489e900] i16 v,h,dc,p: 34% 17% 29% 20%
  179. [libx264 @ 000000c83489e900] i4 v,h,dc,ddl,ddr,vr,hd,vl,hu: 18% 17% 15% 10% 10%  7%  9%  6%  9%
  180. [libx264 @ 000000c83489e900] i8c dc,h,v,p: 47% 21% 19% 13%
RAW Paste Data
We use cookies for various purposes including analytics. By continuing to use Pastebin, you agree to our use of cookies as described in the Cookies Policy. OK, I Understand
Top