Guest User

[bonkai77] Samurai Champloo (ENHANCED) E01

a guest
Nov 25th, 2017
1,105
Never
Not a member of Pastebin yet? Sign Up, it unlocks many cool features!
  1. General
  2. Unique ID : 186816319534505584032321101385875102649 (0x8C8B83AF023E7A9BA576020F6C789BB9)
  3. Complete name : [bonkai77].Samurai.Champloo.(ENHANCED).Episode.01.Tempestuous.Temperaments.1080p.Dual.Audio.Bluray [D94E527C].mkv
  4. Format : Matroska
  5. Format version : Version 4 / Version 2
  6. File size : 268 MiB
  7. Duration : 23 min 21 s
  8. Overall bit rate : 1 605 kb/s
  9. Movie name : Samurai Champloo Disc 1
  10. Encoded date : UTC 2017-08-04 08:14:41
  11. Writing application : mkvmerge v14.0.0 ('Flow') 64bit
  12. Writing library : libebml v1.3.4 + libmatroska v1.4.5
  13.  
  14. Video
  15. ID : 1
  16. Format : HEVC
  17. Format/Info : High Efficiency Video Coding
  18. Format profile : Main 10@L5@Main
  19. Codec ID : V_MPEGH/ISO/HEVC
  20. Duration : 23 min 20 s
  21. Bit rate : 1 063 kb/s
  22. Width : 1 920 pixels
  23. Height : 1 080 pixels
  24. Display aspect ratio : 16:9
  25. Frame rate mode : Constant
  26. Frame rate : 23.976 (24000/1001) FPS
  27. Color space : YUV
  28. Chroma subsampling : 4:2:0
  29. Bit depth : 10 bits
  30. Bits/(Pixel*Frame) : 0.021
  31. Stream size : 177 MiB (66%)
  32. Title : [bonkai77]
  33. Writing library : x265 2.5+6-d11482e5fedb:[Windows][GCC 6.2.1][64 bit] 10bit
  34. Encoding settings : cpuid=1173503 / frame-threads=2 / numa-pools=4 / wpp / no-pmode / no-pme / no-psnr / no-ssim / log-level=2 / input-csp=1 / input-res=1920x1080 / interlace=0 / total-frames=33576 / level-idc=0 / high-tier=1 / uhd-bd=0 / ref=6 / no-allow-non-conformance / no-repeat-headers / annexb / no-aud / no-hrd / info / hash=0 / no-temporal-layers / open-gop / min-keyint=23 / keyint=250 / bframes=8 / b-adapt=2 / b-pyramid / bframe-bias=0 / rc-lookahead=60 / lookahead-slices=0 / scenecut=40 / no-intra-refresh / ctu=32 / min-cu-size=8 / rect / no-amp / max-tu-size=16 / tu-inter-depth=3 / tu-intra-depth=3 / limit-tu=4 / rdoq-level=2 / dynamic-rd=0.00 / no-ssim-rd / signhide / no-tskip / nr-intra=0 / nr-inter=0 / no-constrained-intra / no-strong-intra-smoothing / max-merge=4 / limit-refs=3 / limit-modes / me=3 / subme=5 / merange=57 / temporal-mvp / weightp / weightb / no-analyze-src-pics / no-deblock / no-sao / no-sao-non-deblock / rd=5 / no-early-skip / rskip / no-fast-intra / no-tskip-fast / no-cu-lossless / b-intra / rdpenalty=0 / psy-rd=0.80 / psy-rdoq=2.00 / no-rd-refine / analysis-reuse-mode=0 / no-lossless / cbqpoffs=0 / crqpoffs=0 / rc=crf / crf=22.0 / qcomp=0.60 / qpstep=4 / stats-write=0 / stats-read=0 / ipratio=1.40 / pbratio=1.30 / aq-mode=2 / aq-strength=1.00 / cutree / zone-count=0 / no-strict-cbr / qg-size=32 / no-rc-grain / qpmax=69 / qpmin=0 / no-const-vbv / sar=0 / overscan=0 / videoformat=5 / range=0 / colorprim=2 / transfer=2 / colormatrix=2 / chromaloc=0 / display-window=0 / max-cll=0,0 / min-luma=0 / max-luma=1023 / log2-max-poc-lsb=8 / vui-timing-info / vui-hrd-info / slices=1 / opt-qp-pps / opt-ref-list-length-pps / no-multi-pass-opt-rps / scenecut-bias=0.05 / no-opt-cu-delta-qp / no-aq-motion / no-hdr / no-hdr-opt / no-dhdr10-opt / analysis-reuse-level=5 / scale-factor=0 / refine-intra=0 / refine-inter=0 / refine-mv=0 / no-limit-sao / ctu-info=0
  35. Default : Yes
  36. Forced : No
  37.  
  38. Audio #1
  39. ID : 2
  40. Format : AAC
  41. Format/Info : Advanced Audio Codec
  42. Format profile : LC
  43. Codec ID : A_AAC-2
  44. Duration : 23 min 21 s
  45. Bit rate : 265 kb/s
  46. Channel(s) : 6 channels
  47. Channel positions : Front: L C R, Side: L R, LFE
  48. Sampling rate : 48.0 kHz
  49. Frame rate : 46.875 FPS (1024 SPF)
  50. Compression mode : Lossy
  51. Delay relative to video : 9 ms
  52. Stream size : 44.5 MiB (17%)
  53. Language : English
  54. Default : Yes
  55. Forced : No
  56.  
  57. Audio #2
  58. ID : 3
  59. Format : AAC
  60. Format/Info : Advanced Audio Codec
  61. Format profile : LC
  62. Codec ID : A_AAC-2
  63. Duration : 23 min 21 s
  64. Bit rate : 265 kb/s
  65. Channel(s) : 6 channels
  66. Channel positions : Front: L C R, Side: L R, LFE
  67. Sampling rate : 48.0 kHz
  68. Frame rate : 46.875 FPS (1024 SPF)
  69. Compression mode : Lossy
  70. Delay relative to video : 9 ms
  71. Stream size : 44.7 MiB (17%)
  72. Language : Japanese
  73. Default : No
  74. Forced : No
  75.  
  76. Text #1
  77. ID : 4
  78. Format : VobSub
  79. Muxing mode : zlib
  80. Codec ID : S_VOBSUB
  81. Codec ID/Info : Picture based subtitle format used on DVDs
  82. Duration : 20 min 31 s
  83. Bit rate : 1 592 b/s
  84. Count of elements : 17
  85. Stream size : 240 KiB (0%)
  86. Title : English Signs/Song Retail
  87. Language : English
  88. Default : Yes
  89. Forced : No
  90.  
  91. Text #2
  92. ID : 5
  93. Format : VobSub
  94. Muxing mode : zlib
  95. Codec ID : S_VOBSUB
  96. Codec ID/Info : Picture based subtitle format used on DVDs
  97. Duration : 21 min 31 s
  98. Bit rate : 10.1 kb/s
  99. Count of elements : 301
  100. Stream size : 1.55 MiB (1%)
  101. Title : English Subs Retail
  102. Language : English
  103. Default : No
  104. Forced : No
  105.  
  106. Menu
  107. 00:00:00.000 : en:Chapter 01
  108. 00:01:31.007 : en:Chapter 02
  109. 00:12:24.618 : en:Chapter 03
  110. 00:21:34.584 : en:Chapter 04
RAW Paste Data