Guest User

[bonkai77] Fate Zero E01

a guest
Dec 30th, 2017
434
Never
Not a member of Pastebin yet? Sign Up, it unlocks many cool features!
  1. General
  2. Unique ID : 216613027607793595919334046232859946951 (0xA2F626D0A95C9A058A2CAFC24F08AFC7)
  3. Complete name : [bonkai77].Fate.Zero.Episode.01.(ENHANCED).Summoning.of.the.Heroes.1080p.Dual.Audio.Bluray [886DFD91].mkv
  4. Format : Matroska
  5. Format version : Version 4 / Version 2
  6. File size : 365 MiB
  7. Duration : 47 min 53 s
  8. Overall bit rate : 1 066 kb/s
  9. Movie name : [bonkai77].Fate.Zero.Episode.01.Summoning.of.the.Heroes.1080p.Dual.Audio.Bluray
  10. Encoded date : UTC 2017-09-05 22:23:59
  11. Writing application : mkvmerge v15.0.0 ('Duel with the Devil') 64-bit
  12. Writing library : libebml v1.3.5 + libmatroska v1.4.5
  13. Attachments : david.ttf / HeiseiKakuGoStd-W5-Fate.ttf / IwaOMinPro-Bd-Fate.ttf / IwaOMinPro-Hv-En.ttf / IwaOMinPro-Hv-Fate.ttf / Profile-Medium.otf / Profile-Regular.otf / schneller.TTF / TT-AnitoP-Fate.ttf
  14.  
  15. Video
  16. ID : 1
  17. Format : HEVC
  18. Format/Info : High Efficiency Video Coding
  19. Format profile : Main 10@L5@Main
  20. Codec ID : V_MPEGH/ISO/HEVC
  21. Duration : 47 min 53 s
  22. Bit rate : 858 kb/s
  23. Width : 1 920 pixels
  24. Height : 1 080 pixels
  25. Display aspect ratio : 16:9
  26. Frame rate mode : Constant
  27. Frame rate : 23.976 (24000/1001) FPS
  28. Color space : YUV
  29. Chroma subsampling : 4:2:0
  30. Bit depth : 10 bits
  31. Bits/(Pixel*Frame) : 0.017
  32. Stream size : 294 MiB (80%)
  33. Writing library : x265 2.5+6-d11482e5fedb:[Windows][GCC 7.1.0][64 bit] 10bit
  34. Encoding settings : cpuid=1173503 / frame-threads=2 / numa-pools=4 / wpp / no-pmode / no-pme / no-psnr / no-ssim / log-level=2 / input-csp=1 / input-res=1920x1080 / interlace=0 / total-frames=68904 / level-idc=0 / high-tier=1 / uhd-bd=0 / ref=6 / no-allow-non-conformance / no-repeat-headers / annexb / no-aud / no-hrd / info / hash=0 / no-temporal-layers / open-gop / min-keyint=23 / keyint=250 / bframes=8 / b-adapt=2 / b-pyramid / bframe-bias=0 / rc-lookahead=60 / lookahead-slices=0 / scenecut=40 / no-intra-refresh / ctu=32 / min-cu-size=8 / rect / no-amp / max-tu-size=16 / tu-inter-depth=3 / tu-intra-depth=3 / limit-tu=4 / rdoq-level=2 / dynamic-rd=0.00 / no-ssim-rd / signhide / no-tskip / nr-intra=0 / nr-inter=0 / no-constrained-intra / no-strong-intra-smoothing / max-merge=4 / limit-refs=3 / limit-modes / me=3 / subme=5 / merange=57 / temporal-mvp / weightp / weightb / no-analyze-src-pics / no-deblock / no-sao / no-sao-non-deblock / rd=5 / no-early-skip / rskip / no-fast-intra / no-tskip-fast / no-cu-lossless / b-intra / rdpenalty=0 / psy-rd=0.80 / psy-rdoq=2.00 / no-rd-refine / analysis-reuse-mode=0 / no-lossless / cbqpoffs=0 / crqpoffs=0 / rc=crf / crf=22.0 / qcomp=0.60 / qpstep=4 / stats-write=0 / stats-read=0 / ipratio=1.40 / pbratio=1.30 / aq-mode=2 / aq-strength=1.00 / cutree / zone-count=0 / no-strict-cbr / qg-size=32 / no-rc-grain / qpmax=69 / qpmin=0 / no-const-vbv / sar=0 / overscan=0 / videoformat=5 / range=0 / colorprim=2 / transfer=2 / colormatrix=2 / chromaloc=0 / display-window=0 / max-cll=0,0 / min-luma=0 / max-luma=1023 / log2-max-poc-lsb=8 / vui-timing-info / vui-hrd-info / slices=1 / opt-qp-pps / opt-ref-list-length-pps / no-multi-pass-opt-rps / scenecut-bias=0.05 / no-opt-cu-delta-qp / no-aq-motion / no-hdr / no-hdr-opt / no-dhdr10-opt / analysis-reuse-level=5 / scale-factor=0 / refine-intra=0 / refine-inter=0 / refine-mv=0 / no-limit-sao / ctu-info=0
  35. Default : Yes
  36. Forced : No
  37.  
  38. Audio #1
  39. ID : 2
  40. Format : AAC
  41. Format/Info : Advanced Audio Codec
  42. Format profile : LC
  43. Codec ID : A_AAC-2
  44. Duration : 47 min 45 s
  45. Bit rate : 87.9 kb/s
  46. Channel(s) : 2 channels
  47. Channel positions : Front: L R
  48. Sampling rate : 48.0 kHz
  49. Frame rate : 46.875 FPS (1024 SPF)
  50. Compression mode : Lossy
  51. Delay relative to video : 9 ms
  52. Stream size : 30.0 MiB (8%)
  53. Language : English
  54. Default : Yes
  55. Forced : No
  56.  
  57. Audio #2
  58. ID : 3
  59. Format : AAC
  60. Format/Info : Advanced Audio Codec
  61. Format profile : LC
  62. Codec ID : A_AAC-2
  63. Duration : 47 min 53 s
  64. Bit rate : 87.1 kb/s
  65. Channel(s) : 2 channels
  66. Channel positions : Front: L R
  67. Sampling rate : 48.0 kHz
  68. Frame rate : 46.875 FPS (1024 SPF)
  69. Compression mode : Lossy
  70. Delay relative to video : 9 ms
  71. Stream size : 29.9 MiB (8%)
  72. Language : Japanese
  73. Default : No
  74. Forced : No
  75.  
  76. Text #1
  77. ID : 4
  78. Format : ASS
  79. Codec ID : S_TEXT/ASS
  80. Codec ID/Info : Advanced Sub Station Alpha
  81. Duration : 47 min 32 s
  82. Bit rate : 62 b/s
  83. Count of elements : 171
  84. Compression mode : Lossless
  85. Stream size : 21.7 KiB (0%)
  86. Title : Signs & Songs (UTW)
  87. Language : English
  88. Default : Yes
  89. Forced : No
  90.  
  91. Text #2
  92. ID : 5
  93. Format : ASS
  94. Codec ID : S_TEXT/ASS
  95. Codec ID/Info : Advanced Sub Station Alpha
  96. Duration : 47 min 32 s
  97. Bit rate : 191 b/s
  98. Count of elements : 785
  99. Compression mode : Lossless
  100. Stream size : 66.6 KiB (0%)
  101. Title : English Sub [UTW]
  102. Language : English
  103. Default : No
  104. Forced : No
  105.  
  106. Text #3
  107. ID : 6
  108. Format : VobSub
  109. Muxing mode : zlib
  110. Codec ID : S_VOBSUB
  111. Codec ID/Info : Picture based subtitle format used on DVDs
  112. Duration : 47 min 32 s
  113. Bit rate : 312 b/s
  114. Count of elements : 20
  115. Stream size : 109 KiB (0%)
  116. Title : Signs & Songs (Retail)
  117. Language : English
  118. Default : No
  119. Forced : No
  120.  
  121. Text #4
  122. ID : 7
  123. Format : VobSub
  124. Muxing mode : zlib
  125. Codec ID : S_VOBSUB
  126. Codec ID/Info : Picture based subtitle format used on DVDs
  127. Duration : 47 min 35 s
  128. Bit rate : 9 148 b/s
  129. Count of elements : 651
  130. Stream size : 3.11 MiB (1%)
  131. Title : English Subs (Retail)
  132. Language : English
  133. Default : No
  134. Forced : No
  135.  
  136. Menu
  137. 00:00:00.000 : en:Prologue
  138. 00:02:59.054 : en:Part A
  139. 00:08:43.898 : en:Part B
  140. 00:15:28.970 : en:Part C
  141. 00:21:02.678 : en:Part D
  142. 00:23:41.003 : en:Part E
  143. 00:30:58.690 : en:Part F
  144. 00:32:33.994 : en:Part G
  145. 00:36:47.789 : en:Part H
  146. 00:39:10.765 : en:Part I
  147. 00:42:12.029 : en:Part J
  148. 00:45:00.031 : en:Ending
  149. 00:47:29.972 : en:Preview
RAW Paste Data