SHARE
TWEET

Apollo 13 REMASTERED BluRay 720p

dirtyharrys May 19th, 2019 67 Never
Not a member of Pastebin yet? Sign Up, it unlocks many cool features!
  1. General
  2. Unique ID                   : 129559652550205222636294792405069944894 (0x6178480CA76C30B07AEE67B1B2DD583E)
  3. Complete name               : E:\QlJSQXBvbGxvMTM.mkv
  4. Format                      : Matroska
  5. Format version              : Version 4
  6. File size                   : 2.29 GiB
  7. Duration                    : 2 h 19 min
  8. Overall bit rate            : 2 347 kb/s
  9. Movie name                  : Apollo 13 REMASTERED BR-RIP / Apollo 13 BR-RIP
  10. Encoded date                : UTC 2019-05-19 07:40:27
  11. Writing application         : mkvmerge v30.1.0 ('Forever And More') 32-bit
  12. Writing library             : libebml v1.3.6 + libmatroska v1.4.9
  13. Copyright                   : Movies HDs 2019
  14. ARTIST                      : HarshLearner
  15.  
  16. Video
  17. ID                          : 1
  18. Format                      : AVC
  19. Format/Info                 : Advanced Video Codec
  20. Format profile              : High@L4.1
  21. Format settings             : CABAC / 4 Ref Frames
  22. Format settings, CABAC      : Yes
  23. Format settings, ReFrames   : 4 frames
  24. Codec ID                    : V_MPEG4/ISO/AVC
  25. Duration                    : 2 h 19 min
  26. Bit rate                    : 1 500 kb/s
  27. Width                       : 1 280 pixels
  28. Height                      : 544 pixels
  29. Display aspect ratio        : 2.35:1
  30. Frame rate mode             : Constant
  31. Frame rate                  : 23.976 (23976/1000) FPS
  32. Color space                 : YUV
  33. Chroma subsampling          : 4:2:0
  34. Bit depth                   : 8 bits
  35. Scan type                   : Progressive
  36. Bits/(Pixel*Frame)          : 0.090
  37. Stream size                 : 1.46 GiB (64%)
  38. Title                       : Apollo 13 REMASTERED
  39. Writing library             : x264 core 152 r2851M ba24899
  40. Default                     : Yes
  41. Forced                      : No
  42.  
  43. Audio #1
  44. ID                          : 2
  45. Format                      : AC-3
  46. Format/Info                 : Audio Coding 3
  47. Commercial name             : Dolby Digital
  48. Codec ID                    : A_AC3
  49. Duration                    : 2 h 19 min
  50. Bit rate mode               : Constant
  51. Bit rate                    : 384 kb/s
  52. Channel(s)                  : 6 channels
  53. Channel layout              : L R C LFE Ls Rs
  54. Sampling rate               : 48.0 kHz
  55. Frame rate                  : 31.250 FPS (1536 SPF)
  56. Bit depth                   : 16 bits
  57. Compression mode            : Lossy
  58. Stream size                 : 384 MiB (16%)
  59. Language                    : English
  60. Service kind                : Complete Main
  61. Default                     : No
  62. Forced                      : No
  63.  
  64. Audio #2
  65. ID                          : 3
  66. Format                      : AC-3
  67. Format/Info                 : Audio Coding 3
  68. Commercial name             : Dolby Digital
  69. Codec ID                    : A_AC3
  70. Duration                    : 2 h 19 min
  71. Bit rate mode               : Constant
  72. Bit rate                    : 448 kb/s
  73. Channel(s)                  : 6 channels
  74. Channel layout              : L R C LFE Ls Rs
  75. Sampling rate               : 48.0 kHz
  76. Frame rate                  : 31.250 FPS (1536 SPF)
  77. Bit depth                   : 16 bits
  78. Compression mode            : Lossy
  79. Stream size                 : 448 MiB (19%)
  80. Language                    : Spanish
  81. Service kind                : Complete Main
  82. Default                     : Yes
  83. Forced                      : Yes
  84.  
  85. Text #1
  86. ID                          : 4
  87. Format                      : PGS
  88. Muxing mode                 : zlib
  89. Codec ID                    : S_HDMV/PGS
  90. Codec ID/Info               : Picture based subtitle format used on BDs/HD-DVDs
  91. Duration                    : 2 h 13 min
  92. Bit rate                    : 50.4 kb/s
  93. Count of elements           : 3697
  94. Stream size                 : 48.0 MiB (2%)
  95. Language                    : Spanish
  96. Default                     : No
  97. Forced                      : Yes
  98.  
  99. Text #2
  100. ID                          : 5
  101. Format                      : PGS
  102. Muxing mode                 : zlib
  103. Codec ID                    : S_HDMV/PGS
  104. Codec ID/Info               : Picture based subtitle format used on BDs/HD-DVDs
  105. Duration                    : 2 h 13 min
  106. Bit rate                    : 974 b/s
  107. Count of elements           : 92
  108. Stream size                 : 952 KiB (0%)
  109. Language                    : Spanish
  110. Default                     : No
  111. Forced                      : Yes
  112.  
  113. Text #3
  114. ID                          : 6
  115. Format                      : UTF-8
  116. Codec ID                    : S_TEXT/UTF8
  117. Codec ID/Info               : UTF-8 Plain Text
  118. Duration                    : 2 h 13 min
  119. Bit rate                    : 79 b/s
  120. Count of elements           : 2133
  121. Stream size                 : 77.1 KiB (0%)
  122. Language                    : English
  123. Default                     : No
  124. Forced                      : No
  125.  
  126. Text #4
  127. ID                          : 7
  128. Format                      : UTF-8
  129. Codec ID                    : S_TEXT/UTF8
  130. Codec ID/Info               : UTF-8 Plain Text
  131. Duration                    : 2 h 13 min
  132. Bit rate                    : 81 b/s
  133. Count of elements           : 1836
  134. Stream size                 : 79.6 KiB (0%)
  135. Language                    : Spanish
  136. Default                     : Yes
  137. Forced                      : Yes
  138.  
  139. Menu
  140. 00:00:00.000                : :Chapter 01
  141. 00:09:39.120                : :Chapter 02
  142. 00:19:49.355                : :Chapter 03
  143. 00:34:21.851                : :Chapter 04
  144. 00:45:15.338                : :Chapter 05
  145. 00:49:38.184                : :Chapter 06
  146. 01:01:59.674                : :Chapter 07
  147. 01:05:52.657                : :Chapter 08
  148. 01:10:05.451                : :Chapter 09
  149. 01:15:08.045                : :Chapter 10
  150. 01:17:08.040                : :Chapter 11
  151. 01:19:41.610                : :Chapter 12
  152. 00:38:14.375                : :Chapter 13
  153. 01:35:12.582                : :Chapter 14
  154. 01:39:11.154                : :Chapter 15
  155. 01:48:21.495                : :Chapter 16
  156. 01:56:39.618                : :Chapter 17
  157. 01:58:49.914                : :Chapter 18
  158. 02:05:18.094                : :Chapter 19
  159. 02:09:07.156                : :Chapter 20
  160. 02:14:06.038                : :Chapter 21
RAW Paste Data
We use cookies for various purposes including analytics. By continuing to use Pastebin, you agree to our use of cookies as described in the Cookies Policy. OK, I Understand
 
Top