daily pastebin goal
42%
SHARE
TWEET

Untitled

a guest Jan 18th, 2019 56 Never
Not a member of Pastebin yet? Sign Up, it unlocks many cool features!
  1. QUICK SUMMARY:
  2. Disc Title: Dracula  Prince of Darkness
  3. Disc Size: 48,710,809,600 bytes
  4. Protection: AACS
  5. BD-Java: Yes
  6. Playlist: 01002.MPLS
  7. Size: 21,610,106,880 bytes
  8. Length: 1:30:14.541
  9. Total Bitrate: 31.93 Mbps
  10. Video: MPEG-4 AVC Video / 28000 kbps / 1080p / 24 fps / 16:9 / High Profile 4.1 /
  11. Audio: English / DTS-HD Master Audio / 2.0 / 48 kHz / 1567 kbps / 24-bit (DTS Core: 2.0 / 48 kHz / 1509 kbps / 24-bit)
  12. Audio: English / Dolby Digital Audio / 2.0 / 48 kHz / 192 kbps
  13. Audio: English / Dolby Digital Audio / 2.0 / 48 kHz / 192 kbps
  14. Audio: English / Dolby Digital Audio / 2.0 / 48 kHz / 192 kbps
  15. Subtitle: English / 24.698 kbps  
  16.  
  17. General
  18. Unique ID : 17860926476341195192829088490439190099 (0xD6FE3AA0D2880000B574CCF53DE2653)
  19. Complete name : /home/c0d/media/movies/Dracula.Prince.of.Darkness.1966.BluRay.REMUX.AVC.FLAC.2.0-C0deye.mkv
  20. Format : Matroska
  21. Format version : Version 4 / Version 2
  22. File size : 17.8 GiB
  23. Duration : 1h 30mn
  24. Overall bit rate mode : Variable
  25. Overall bit rate : 28.3 Mbps
  26. Movie name : Dracula: Prince of Darkness(1966)
  27. Encoded date : UTC 2019-01-18 20:56:35
  28. Writing application : mkvmerge v30.1.0 ('Forever And More') 64-bit
  29. Writing library : libebml v1.3.6 + libmatroska v1.4.9
  30.  
  31. Video
  32. ID : 1
  33. Format : AVC
  34. Format/Info : Advanced Video Codec
  35. Format profile : High@L4.1
  36. Format settings, CABAC : Yes
  37. Format settings, ReFrames : 4 frames
  38. Codec ID : V_MPEG4/ISO/AVC
  39. Duration : 1h 30mn
  40. Bit rate mode : Constant
  41. Bit rate : 28.0 Mbps
  42. Width : 1 920 pixels
  43. Height : 1 080 pixels
  44. Display aspect ratio : 16:9
  45. Frame rate mode : Constant
  46. Frame rate : 24.000 fps
  47. Color space : YUV
  48. Chroma subsampling : 4:2:0
  49. Bit depth : 8 bits
  50. Scan type : Progressive
  51. Bits/(Pixel*Frame) : 0.563
  52. Stream size : 17.3 GiB (97%)
  53. Title : MPEG-4 AVC Video / 28000 kbps / 1080p / 24 fps / 16:9 / High Profile 4.1
  54. Language : English
  55. Default : Yes
  56. Forced : No
  57.  
  58. Audio #1
  59. ID : 2
  60. Format : FLAC
  61. Format/Info : Free Lossless Audio Codec
  62. Codec ID : A_FLAC
  63. Duration : 1h 30mn
  64. Bit rate mode : Variable
  65. Bit rate : 188 Kbps
  66. Channel(s) : 2 channels
  67. Channel positions : Front: L R
  68. Sampling rate : 48.0 KHz
  69. Frame rate : 11.719 fps (4096 spf)
  70. Bit depth : 16 bits
  71. Stream size : 122 MiB (1%)
  72. Title : FLAC Audio / 2.0 / 48 kHz / 188 kbps / 16-bit
  73. Writing library : libFLAC 1.2.1 (UTC 2007-09-17)
  74. Language : English
  75. Default : Yes
  76. Forced : No
  77.  
  78. Audio #2
  79. ID : 3
  80. Format : AC-3
  81. Format/Info : Audio Coding 3
  82. Mode extension : CM (complete main)
  83. Format settings, Endianness : Big
  84. Codec ID : A_AC3
  85. Duration : 1h 30mn
  86. Bit rate mode : Constant
  87. Bit rate : 224 Kbps
  88. Channel(s) : 2 channels
  89. Channel positions : Front: L R
  90. Sampling rate : 48.0 KHz
  91. Frame rate : 31.250 fps (1536 spf)
  92. Compression mode : Lossy
  93. Stream size : 145 MiB (1%)
  94. Title : Commentary by author and horror historian Troy Howarth
  95. Language : English
  96. Default : No
  97. Forced : No
  98.  
  99. Audio #3
  100. ID : 4
  101. Format : AC-3
  102. Format/Info : Audio Coding 3
  103. Mode extension : CM (complete main)
  104. Format settings, Endianness : Big
  105. Codec ID : A_AC3
  106. Duration : 1h 30mn
  107. Bit rate mode : Constant
  108. Bit rate : 224 Kbps
  109. Channel(s) : 2 channels
  110. Channel positions : Front: L R
  111. Sampling rate : 48.0 KHz
  112. Frame rate : 31.250 fps (1536 spf)
  113. Compression mode : Lossy
  114. Stream size : 145 MiB (1%)
  115. Title : Commentary by filmmaker Constantine Nasr and writer/producer Steve Haberman
  116. Language : English
  117. Default : No
  118. Forced : No
  119.  
  120. Audio #4
  121. ID : 5
  122. Format : AC-3
  123. Format/Info : Audio Coding 3
  124. Mode extension : CM (complete main)
  125. Format settings, Endianness : Big
  126. Codec ID : A_AC3
  127. Duration : 1h 30mn
  128. Bit rate mode : Constant
  129. Bit rate : 224 Kbps
  130. Channel(s) : 2 channels
  131. Channel positions : Front: L R
  132. Sampling rate : 48.0 KHz
  133. Frame rate : 31.250 fps (1536 spf)
  134. Compression mode : Lossy
  135. Stream size : 145 MiB (1%)
  136. Title : Commentary by cast members Christopher Lee, Suzan Farmer, Francis Matthews and Barbara Shelley
  137. Language : English
  138. Default : No
  139. Forced : No
  140.  
  141. Text
  142. ID : 6
  143. Format : PGS
  144. Codec ID : S_HDMV/PGS
  145. Codec ID/Info : Picture based subtitle format used on BDs/HD-DVDs
  146. Duration : 1h 29mn
  147. Bit rate : 24.9 Kbps
  148. Count of elements : 1543
  149. Stream size : 15.9 MiB (0%)
  150. Language : English
  151. Default : No
  152. Forced : No
  153.  
  154. Menu
  155. 00:00:00.000 : en:Chapter 01
  156. 00:08:20.333 : en:Chapter 02
  157. 00:14:21.542 : en:Chapter 03
  158. 00:20:17.417 : en:Chapter 04
  159. 00:26:41.500 : en:Chapter 05
  160. 00:35:07.667 : en:Chapter 06
  161. 00:42:51.542 : en:Chapter 07
  162. 00:50:33.167 : en:Chapter 08
  163. 00:56:02.083 : en:Chapter 09
  164. 01:02:57.042 : en:Chapter 10
  165. 01:10:35.083 : en:Chapter 11
  166. 01:20:28.292 : en:Chapter 12
RAW Paste Data
We use cookies for various purposes including analytics. By continuing to use Pastebin, you agree to our use of cookies as described in the Cookies Policy. OK, I Understand
 
Top