SHARE
TWEET

John Wick 3: Parabellum HD-RIP 480p

dirtyharrys Jul 10th, 2019 109 Never
Not a member of Pastebin yet? Sign Up, it unlocks many cool features!
  1. General
  2. Unique ID                   : 283564581972437154006697247687628379357 (0xD5548D4D2C9FCB2B21E40691B32554DD)
  3. Complete name               : E:\John Wick 3 Parabellum.mkv
  4. Format                      : Matroska
  5. Format version              : Version 4
  6. File size                   : 1.39 GiB
  7. Duration                    : 2 h 10 min
  8. Overall bit rate            : 1 527 kb/s
  9. Movie name                  : John Wick 3: Parabellum HD-RIP / John Wick 3: Parabellum HD-RIP
  10. Encoded date                : UTC 2019-07-10 07:35:48
  11. Writing application         : mkvmerge v30.1.0 ('Forever And More') 32-bit
  12. Writing library             : libebml v1.3.6 + libmatroska v1.4.9
  13. Copyright                   : Movies HDs 2019
  14. ARTIST                      : HarshLearner
  15.  
  16. Video
  17. ID                          : 1
  18. Format                      : AVC
  19. Format/Info                 : Advanced Video Codec
  20. Format profile              : High@L4.1
  21. Format settings             : CABAC / 4 Ref Frames
  22. Format settings, CABAC      : Yes
  23. Format settings, ReFrames   : 4 frames
  24. Codec ID                    : V_MPEG4/ISO/AVC
  25. Duration                    : 2 h 10 min
  26. Bit rate                    : 1 328 kb/s
  27. Width                       : 720 pixels
  28. Height                      : 292 pixels
  29. Display aspect ratio        : 2.466
  30. Frame rate mode             : Constant
  31. Frame rate                  : 23.976 (24000/1001) FPS
  32. Color space                 : YUV
  33. Chroma subsampling          : 4:2:0
  34. Bit depth                   : 8 bits
  35. Scan type                   : Progressive
  36. Bits/(Pixel*Frame)          : 0.263
  37. Stream size                 : 1.22 GiB (87%)
  38. Title                       : John Wick 3: Parabellum
  39. Writing library             : x264 core 142 r2479 dd79a61
  40. Default                     : Yes
  41. Forced                      : No
  42. Color range                 : Limited
  43. Color primaries             : BT.601 NTSC
  44. Transfer characteristics    : BT.709
  45. Matrix coefficients         : BT.601
  46.  
  47. Audio
  48. ID                          : 2
  49. Format                      : AC-3
  50. Format/Info                 : Audio Coding 3
  51. Commercial name             : Dolby Digital
  52. Codec ID                    : A_AC3
  53. Duration                    : 2 h 10 min
  54. Bit rate mode               : Constant
  55. Bit rate                    : 192 kb/s
  56. Channel(s)                  : 2 channels
  57. Channel layout              : L R
  58. Sampling rate               : 48.0 kHz
  59. Frame rate                  : 31.250 FPS (1536 SPF)
  60. Bit depth                   : 16 bits
  61. Compression mode            : Lossy
  62. Delay relative to video     : -5 ms
  63. Stream size                 : 180 MiB (13%)
  64. Language                    : English
  65. Service kind                : Complete Main
  66. Default                     : Yes
  67. Forced                      : No
  68.  
  69. Text
  70. ID                          : 3
  71. Format                      : UTF-8
  72. Codec ID                    : S_TEXT/UTF8
  73. Codec ID/Info               : UTF-8 Plain Text
  74. Duration                    : 1 h 59 min
  75. Bit rate                    : 28 b/s
  76. Count of elements           : 807
  77. Stream size                 : 24.6 KiB (0%)
  78. Language                    : Spanish
  79. Default                     : Yes
  80. Forced                      : No
RAW Paste Data
We use cookies for various purposes including analytics. By continuing to use Pastebin, you agree to our use of cookies as described in the Cookies Policy. OK, I Understand
 
Top