SHARE
TWEET

Untitled

seleZennet Apr 1st, 2020 187 Never
Not a member of Pastebin yet? Sign Up, it unlocks many cool features!
  1. General
  2. Unique ID                   : 104465555872318120783237234648167623739 (0x4E97558F8484A3F642A93D0C284E2C3B)
  3. Complete name               : E:\Video111\Star.Wars.Episode.VI.Return.of.the.Jedi.1983.BDREMUX.2160p.HDR.seleZen.mkv
  4. Format                      : Matroska
  5. Format version              : Version 4
  6. File size                   : 45.1 GiB
  7. Duration                    : 2 h 14 min
  8. Overall bit rate mode       : Variable
  9. Overall bit rate            : 47.9 Mb/s
  10. Movie name                  : Star Wars Episode VI Return of the Jedi 1983 from селезень
  11. Encoded date                : UTC 2020-04-01 19:18:52
  12. Writing application         : mkvmerge v40.0.0 ('Old Town Road + Pony') 64-bit
  13. Writing library             : libebml v1.3.9 + libmatroska v1.5.2
  14.  
  15. Video
  16. ID                          : 1
  17. Format                      : HEVC
  18. Format/Info                 : High Efficiency Video Coding
  19. Format profile              : Main 10@L5.1@High
  20. HDR format                  : SMPTE ST 2086, HDR10 compatible
  21. Codec ID                    : V_MPEGH/ISO/HEVC
  22. Duration                    : 2 h 14 min
  23. Bit rate                    : 42.0 Mb/s
  24. Width                       : 3 840 pixels
  25. Height                      : 2 160 pixels
  26. Display aspect ratio        : 16:9
  27. Frame rate mode             : Constant
  28. Frame rate                  : 23.976 (24000/1001) FPS
  29. Color space                 : YUV
  30. Chroma subsampling          : 4:2:0 (Type 2)
  31. Bit depth                   : 10 bits
  32. Bits/(Pixel*Frame)          : 0.211
  33. Stream size                 : 39.5 GiB (88%)
  34. Writing library             : ATEME Titan File 3.9.0 (4.9.0.0)        
  35. Language                    : English
  36. Default                     : No
  37. Forced                      : No
  38. Color range                 : Limited
  39. Color primaries             : BT.2020
  40. Transfer characteristics    : PQ
  41. Matrix coefficients         : BT.2020 non-constant
  42. Mastering display color pri : BT.2020
  43. Mastering display luminance : min: 0.0001 cd/m2, max: 1000 cd/m2
  44.  
  45. Audio #1
  46. ID                          : 2
  47. Format                      : DTS
  48. Format/Info                 : Digital Theater Systems
  49. Codec ID                    : A_DTS
  50. Duration                    : 2 h 14 min
  51. Bit rate mode               : Constant
  52. Bit rate                    : 768 kb/s
  53. Channel(s)                  : 6 channels
  54. Channel layout              : C L R Ls Rs LFE
  55. Sampling rate               : 48.0 kHz
  56. Frame rate                  : 93.750 FPS (512 SPF)
  57. Bit depth                   : 24 bits
  58. Compression mode            : Lossy
  59. Stream size                 : 740 MiB (2%)
  60. Title                       : Dub [License]
  61. Language                    : Russian
  62. Default                     : Yes
  63. Forced                      : Yes
  64.  
  65. Audio #2
  66. ID                          : 3
  67. Format                      : AC-3
  68. Format/Info                 : Audio Coding 3
  69. Commercial name             : Dolby Digital
  70. Codec ID                    : A_AC3
  71. Duration                    : 2 h 14 min
  72. Bit rate mode               : Constant
  73. Bit rate                    : 448 kb/s
  74. Channel(s)                  : 6 channels
  75. Channel layout              : L R C LFE Ls Rs
  76. Sampling rate               : 48.0 kHz
  77. Frame rate                  : 31.250 FPS (1536 SPF)
  78. Compression mode            : Lossy
  79. Stream size                 : 432 MiB (1%)
  80. Title                       : Dub [License]
  81. Language                    : Russian
  82. Service kind                : Complete Main
  83. Default                     : No
  84. Forced                      : No
  85.  
  86. Audio #3
  87. ID                          : 4
  88. Format                      : MLP FBA 16-ch
  89. Format/Info                 : Meridian Lossless Packing FBA with 16-channel presentation
  90. Commercial name             : Dolby TrueHD with Dolby Atmos
  91. Codec ID                    : A_TRUEHD
  92. Duration                    : 2 h 14 min
  93. Bit rate mode               : Variable
  94. Bit rate                    : 4 030 kb/s
  95. Maximum bit rate            : 5 523 kb/s
  96. Channel(s)                  : 8 channels
  97. Channel layout              : L R C LFE Ls Rs Lb Rb
  98. Sampling rate               : 48.0 kHz
  99. Frame rate                  : 1 200.000 FPS (40 SPF)
  100. Compression mode            : Lossless
  101. Stream size                 : 3.79 GiB (8%)
  102. Title                       : Original
  103. Language                    : English
  104. Default                     : No
  105. Forced                      : No
  106. Number of dynamic objects   : 13
  107. Bed channel count           : 1 channel
  108. Bed channel configuration   : LFE
  109.  
  110. Audio #4
  111. ID                          : 5
  112. Format                      : AC-3
  113. Format/Info                 : Audio Coding 3
  114. Commercial name             : Dolby Digital
  115. Codec ID                    : A_AC3
  116. Duration                    : 2 h 14 min
  117. Bit rate mode               : Constant
  118. Bit rate                    : 640 kb/s
  119. Channel(s)                  : 6 channels
  120. Channel layout              : L R C LFE Ls Rs
  121. Sampling rate               : 48.0 kHz
  122. Frame rate                  : 31.250 FPS (1536 SPF)
  123. Compression mode            : Lossy
  124. Stream size                 : 617 MiB (1%)
  125. Language                    : English
  126. Service kind                : Complete Main
  127. Default                     : No
  128. Forced                      : No
  129.  
  130. Text #1
  131. ID                          : 6
  132. Format                      : UTF-8
  133. Codec ID                    : S_TEXT/UTF8
  134. Codec ID/Info               : UTF-8 Plain Text
  135. Duration                    : 22 min 44 s
  136. Bit rate                    : 9 b/s
  137. Count of elements           : 30
  138. Stream size                 : 1.54 KiB (0%)
  139. Title                       : Forced
  140. Language                    : Russian
  141. Default                     : Yes
  142. Forced                      : Yes
  143.  
  144. Text #2
  145. ID                          : 7
  146. Format                      : UTF-8
  147. Codec ID                    : S_TEXT/UTF8
  148. Codec ID/Info               : UTF-8 Plain Text
  149. Duration                    : 2 h 5 min
  150. Bit rate                    : 60 b/s
  151. Count of elements           : 1020
  152. Stream size                 : 55.6 KiB (0%)
  153. Title                       : Full
  154. Language                    : Russian
  155. Default                     : No
  156. Forced                      : No
  157.  
  158. Text #3
  159. ID                          : 8
  160. Format                      : UTF-8
  161. Codec ID                    : S_TEXT/UTF8
  162. Codec ID/Info               : UTF-8 Plain Text
  163. Duration                    : 2 h 3 min
  164. Bit rate                    : 34 b/s
  165. Count of elements           : 1007
  166. Stream size                 : 31.5 KiB (0%)
  167. Title                       : Full
  168. Language                    : English
  169. Default                     : No
  170. Forced                      : No
  171.  
  172. Menu
  173. 00:00:00.000                : en:Opening Logos
  174. 00:00:21.855                : en:Return of the Jedi
  175. 00:01:55.782                : en:Vader's Unexpected Visit
  176. 00:04:59.132                : en:Arrival at Jabba's Palace
  177. 00:08:11.574                : en:A Message and a Gift
  178. 00:12:22.575                : en:The Max Rebo Band
  179. 00:14:22.695                : en:The Price for Chewbacca
  180. 00:17:36.680                : en:Free From the Carbonite
  181. 00:22:10.704                : en:Enter the Jedi
  182. 00:25:09.007                : en:"Oh No! The Rancor!"
  183. 00:29:38.026                : en:On the Sail Barge
  184. 00:31:29.679                : en:The Sarlacc Pit
  185. 00:37:45.137                : en:The Emperor Arrives
  186. 00:39:32.912                : en:Yoda's Twilight
  187. 00:45:18.090                : en:A Certain Point of View
  188. 00:48:24.067                : en:Rebel Briefing
  189. 00:51:36.676                : en:Lending the Falcon
  190. 00:53:33.334                : en:The Emperor's Instructions
  191. 00:54:25.762                : en:Flying Casual
  192. 00:56:55.912                : en:Arrival on Endor
  193. 00:58:44.479                : en:Speeder Bike Chase
  194. 01:02:42.383                : en:Leia Meets Wicket
  195. 01:06:19.934                : en:Vader's Report
  196. 01:07:48.147                : en:An Ewok Trap
  197. 01:12:01.775                : en:The Golden God
  198. 01:15:53.340                : en:Campfire Stories
  199. 01:18:15.482                : en:Brother and Sister
  200. 01:22:31.070                : en:Luke Surrenders
  201. 01:26:07.537                : en:Rebel Recon
  202. 01:26:52.749                : en:The Alliance Fleet
  203. 01:27:51.557                : en:Back Door
  204. 01:30:05.191                : en:Luke and the Emperor
  205. 01:33:19.802                : en:"It's a Trap!"
  206. 01:36:42.087                : en:Ewok Attack
  207. 01:40:25.852                : en:Fully Operational
  208. 01:42:23.845                : en:The Battle Rages
  209. 01:44:28.470                : en:The Dark Side Beckons
  210. 01:45:27.612                : en:The Ewoks Turn the Tide
  211. 01:48:43.099                : en:Father vs. Son
  212. 01:50:41.301                : en:Taking the Bunker
  213. 01:51:37.774                : en:A Jedi's Fury
  214. 01:54:37.787                : en:The Shield Is Down
  215. 01:55:08.526                : en:Force Lightning
  216. 01:55:58.159                : en:Vader's Redemption
  217. 01:57:40.845                : en:Into the Death Star
  218. 01:59:34.834                : en:Anakin Unmasked
  219. 02:01:59.520                : en:Death Star Destroyed
  220. 02:04:51.233                : en:Funeral Pyre
  221. 02:05:28.103                : en:Celebration
  222. 02:07:56.710                : en:End Credits
RAW Paste Data
We use cookies for various purposes including analytics. By continuing to use Pastebin, you agree to our use of cookies as described in the Cookies Policy. OK, I Understand
Top