SHARE
TWEET

atag doesn't force atag

dericed Jan 2nd, 2012 41 Never
Not a member of Pastebin yet? Sign Up, it unlocks many cool features!
  1. ffmpeg -i MI-351_8b.mov -vn -acodec pcm_s24be -atag in24 in24.mov
  2. ffmpeg version N-32741-g440e984, Copyright (c) 2000-2011 the FFmpeg developers
  3.   built on Dec 27 2011 09:48:51 with gcc 4.2.1 (Apple Inc. build 5666) (dot 3)
  4.   configuration: --prefix=/usr/local/Cellar/ffmpeg/HEAD --enable-shared --enable-gpl --enable-version3 --enable-libfreetype --enable-nonfree --enable-hardcoded-tables --cc=/usr/bin/gcc-4.2 --enable-libx264 --enable-libfaac --enable-libmp3lame --enable-libtheora --enable-libvorbis --enable-libvpx --enable-libxvid
  5.   libavutil      51. 33.100 / 51. 33.100
  6.   libavcodec     53. 48.100 / 53. 48.100
  7.   libavformat    53. 28.100 / 53. 28.100
  8.   libavdevice    53.  4.100 / 53.  4.100
  9.   libavfilter     2. 55.100 /  2. 55.100
  10.   libswscale      2.  1.100 /  2.  1.100
  11.   libswresample   0.  5.100 /  0.  5.100
  12.   libpostproc    51.  2.100 / 51.  2.100
  13.  
  14. Seems stream 0 codec frame rate differs from container frame rate: 30000.00 (30000/1) -> 29.97 (30000/1001)
  15. Input #0, mov,mp4,m4a,3gp,3g2,mj2, from 'MI-351_8b.mov':
  16.   Metadata:
  17.     major_brand     : qt  
  18.     minor_version   : 512
  19.     compatible_brands: qt  
  20.     creation_time   : 1970-01-01 00:00:00
  21.     encoder         : Lavf53.14.0
  22.   Duration: 00:00:13.03, start: 0.000000, bitrate: 169865 kb/s
  23.     Stream #0:0(eng): Video: rawvideo (2vuy / 0x79757632), uyvy422, 720x486, 167793 kb/s, SAR 9:10 DAR 4:3, 29.97 fps, 29.97 tbr, 30k tbn, 30k tbc
  24.     Metadata:
  25.       creation_time   : 1970-01-01 00:00:00
  26.       handler_name    :
  27.                         DataHandler
  28.     Stream #0:1(eng): Audio: pcm_s24le (in24 / 0x34326E69), 48000 Hz, 2 channels, s32, 2304 kb/s
  29.     Metadata:
  30.       creation_time   : 1970-01-01 00:00:00
  31.       handler_name    :
  32.                         DataHandler
  33. Output #0, mov, to 'in24.mov':
  34.   Metadata:
  35.     major_brand     : qt  
  36.     minor_version   : 512
  37.     compatible_brands: qt  
  38.     creation_time   : 1970-01-01 00:00:00
  39.     encoder         : Lavf53.28.100
  40.     Stream #0:0(eng): Audio: pcm_s24be (in24 / 0x34326E69), 48000 Hz, 2 channels, s32, 2304 kb/s
  41.     Metadata:
  42.       creation_time   : 1970-01-01 00:00:00
  43.       handler_name    :
  44.                         DataHandler
  45. Stream mapping:
  46.   Stream #0:1 -> #0:0 (pcm_s24le -> pcm_s24be)
  47. Press [q] to stop, [?] for help
  48. size=    3666kB time=00:00:13.03 bitrate=2304.4kbits/s    
  49. video:0kB audio:3665kB global headers:0kB muxing overhead 0.018598%
RAW Paste Data
We use cookies for various purposes including analytics. By continuing to use Pastebin, you agree to our use of cookies as described in the Cookies Policy. OK, I Understand
 
Top