SHARE
TWEET

The Protector: Season 2 1080p WEB-DL

dirtyharrys May 9th, 2019 164 Never
Not a member of Pastebin yet? Sign Up, it unlocks many cool features!
  1. General
  2. Unique ID                   : 95624204711479922792773059245554805514 (0x47F08D4B092A13DA9BDCAB7EFA402B0A)
  3. Complete name               : E:\The.Protector.S02\TP-S02E01.mkv
  4. Format                      : Matroska
  5. Format version              : Version 4
  6. File size                   : 1.32 GiB
  7. Duration                    : 40 min 18 s
  8. Overall bit rate mode       : Variable
  9. Overall bit rate            : 4 704 kb/s
  10. Movie name                  : The Protector S02E01 / The Protector: Season Two
  11. Description                 : Episode 01: "Cap�lo 1"
  12. Encoded date                : UTC 2019-05-08 08:27:16
  13. Writing application         : mkvmerge v30.1.0 ('Forever And More') 32-bit
  14. Writing library             : libebml v1.3.6 + libmatroska v1.4.9
  15. Copyright                   : Movies HDs 2019
  16. ARTIST                      : HarshLearner
  17.  
  18. Video
  19. ID                          : 1
  20. Format                      : AVC
  21. Format/Info                 : Advanced Video Codec
  22. Format profile              : Main@L4
  23. Format settings             : CABAC / 3 Ref Frames
  24. Format settings, CABAC      : Yes
  25. Format settings, ReFrames   : 3 frames
  26. Codec ID                    : V_MPEG4/ISO/AVC
  27. Duration                    : 40 min 18 s
  28. Bit rate mode               : Variable
  29. Bit rate                    : 3 650 kb/s
  30. Maximum bit rate            : 5 475 kb/s
  31. Width                       : 1 920 pixels
  32. Height                      : 1 080 pixels
  33. Display aspect ratio        : 16:9
  34. Frame rate mode             : Constant
  35. Frame rate                  : 24.000 FPS
  36. Color space                 : YUV
  37. Chroma subsampling          : 4:2:0
  38. Bit depth                   : 8 bits
  39. Scan type                   : Progressive
  40. Bits/(Pixel*Frame)          : 0.073
  41. Stream size                 : 1.02 GiB (77%)
  42. Title                       : S02E01: Capítulo 1
  43. Writing library             : x264 core 148 r2715 7e75228
  44. Encoding settings           : cabac=1 / ref=3 / deblock=1:0:0 / analyse=0x1:0x111 / me=umh / subme=10 / psy=1 / psy_rd=1.00:0.00 / mixed_ref=1 / me_range=24 / chroma_me=1 / trellis=2 / 8x8dct=0 / cqm=0 / deadzone=21,11 / fast_pskip=1 / chroma_qp_offset=-2 / threads=8 / lookahead_threads=1 / sliced_threads=0 / nr=0 / decimate=1 / interlaced=0 / bluray_compat=0 / stitchable=1 / constrained_intra=0 / bframes=2 / b_pyramid=0 / b_adapt=2 / b_bias=0 / direct=3 / weightb=1 / open_gop=0 / weightp=2 / keyint=48 / keyint_min=25 / scenecut=0 / intra_refresh=0 / rc_lookahead=48 / rc=2pass / mbtree=1 / bitrate=3650 / ratetol=1.0 / qcomp=0.50 / qpmin=6 / qpmax=51 / qpstep=4 / cplxblur=20.0 / qblur=0.5 / vbv_maxrate=5475 / vbv_bufsize=7300 / nal_hrd=vbr / filler=0 / ip_ratio=1.40 / aq=1:1.00
  45. Default                     : Yes
  46. Forced                      : No
  47.  
  48. Audio #1
  49. ID                          : 2
  50. Format                      : E-AC-3
  51. Format/Info                 : Enhanced AC-3
  52. Commercial name             : Dolby Digital Plus
  53. Codec ID                    : A_EAC3
  54. Duration                    : 40 min 18 s
  55. Bit rate mode               : Constant
  56. Bit rate                    : 640 kb/s
  57. Channel(s)                  : 6 channels
  58. Channel layout              : L R C LFE Ls Rs
  59. Sampling rate               : 48.0 kHz
  60. Frame rate                  : 31.250 FPS (1536 SPF)
  61. Compression mode            : Lossy
  62. Stream size                 : 185 MiB (14%)
  63. Language                    : Turkish
  64. Service kind                : Complete Main
  65. Default                     : No
  66. Forced                      : No
  67.  
  68. Audio #2
  69. ID                          : 3
  70. Format                      : E-AC-3
  71. Format/Info                 : Enhanced AC-3
  72. Commercial name             : Dolby Digital Plus
  73. Codec ID                    : A_EAC3
  74. Duration                    : 40 min 18 s
  75. Bit rate mode               : Constant
  76. Bit rate                    : 448 kb/s
  77. Channel(s)                  : 6 channels
  78. Channel layout              : L R C LFE Ls Rs
  79. Sampling rate               : 48.0 kHz
  80. Frame rate                  : 31.250 FPS (1536 SPF)
  81. Compression mode            : Lossy
  82. Stream size                 : 129 MiB (10%)
  83. Language                    : Spanish
  84. Service kind                : Complete Main
  85. Default                     : Yes
  86. Forced                      : Yes
  87.  
  88. Text #1
  89. ID                          : 4
  90. Format                      : UTF-8
  91. Codec ID                    : S_TEXT/UTF8
  92. Codec ID/Info               : UTF-8 Plain Text
  93. Duration                    : 37 min 14 s
  94. Bit rate                    : 44 b/s
  95. Count of elements           : 427
  96. Stream size                 : 12.2 KiB (0%)
  97. Language                    : English
  98. Default                     : No
  99. Forced                      : No
  100.  
  101. Text #2
  102. ID                          : 5
  103. Format                      : UTF-8
  104. Codec ID                    : S_TEXT/UTF8
  105. Codec ID/Info               : UTF-8 Plain Text
  106. Duration                    : 37 min 15 s
  107. Bit rate                    : 54 b/s
  108. Count of elements           : 531
  109. Stream size                 : 15.0 KiB (0%)
  110. Title                       : English SDH
  111. Language                    : English
  112. Default                     : No
  113. Forced                      : No
  114.  
  115. Text #3
  116. ID                          : 6
  117. Format                      : UTF-8
  118. Codec ID                    : S_TEXT/UTF8
  119. Codec ID/Info               : UTF-8 Plain Text
  120. Duration                    : 37 min 14 s
  121. Bit rate                    : 44 b/s
  122. Count of elements           : 428
  123. Stream size                 : 12.2 KiB (0%)
  124. Language                    : Spanish
  125. Default                     : Yes
  126. Forced                      : Yes
  127.  
  128. Text #4
  129. ID                          : 7
  130. Format                      : UTF-8
  131. Codec ID                    : S_TEXT/UTF8
  132. Codec ID/Info               : UTF-8 Plain Text
  133. Duration                    : 39 min 36 s
  134. Bit rate                    : 38 b/s
  135. Count of elements           : 419
  136. Stream size                 : 11.3 KiB (0%)
  137. Language                    : French
  138. Default                     : No
  139. Forced                      : No
  140.  
  141. Text #5
  142. ID                          : 8
  143. Format                      : UTF-8
  144. Codec ID                    : S_TEXT/UTF8
  145. Codec ID/Info               : UTF-8 Plain Text
  146. Duration                    : 37 min 14 s
  147. Bit rate                    : 40 b/s
  148. Count of elements           : 428
  149. Stream size                 : 11.0 KiB (0%)
  150. Title                       : Brazilian Portuguese
  151. Language                    : Portuguese
  152. Default                     : No
  153. Forced                      : No
  154.  
  155. Text #6
  156. ID                          : 9
  157. Format                      : UTF-8
  158. Codec ID                    : S_TEXT/UTF8
  159. Codec ID/Info               : UTF-8 Plain Text
  160. Duration                    : 39 min 36 s
  161. Bit rate                    : 1 b/s
  162. Count of elements           : 16
  163. Stream size                 : 448 Bytes (0%)
  164. Language                    : Spanish
  165. Default                     : No
  166. Forced                      : No
RAW Paste Data
We use cookies for various purposes including analytics. By continuing to use Pastebin, you agree to our use of cookies as described in the Cookies Policy. OK, I Understand
Not a member of Pastebin yet?
Sign Up, it unlocks many cool features!
 
Top