SHARE
TWEET

Driving.Miss.Daisy.1989.MULTI.REMUX.1080p.Blu-ray.AVC.DTS-HD.MA.5.1-LEGi0N

a guest Jun 15th, 2019 26 Never
Not a member of Pastebin yet? Sign Up, it unlocks many cool features!
  1. General
  2. Unique ID                                : 67341856545856582177190799967797529631 (0x32A991DE9FDBC3993737E6A26B9E4C1F)
  3. Complete name                            : Driving.Miss.Daisy.1989.MULTI.REMUX.1080p.Blu-ray.AVC.DTS-HD.MA.5.1-LEGi0N.mkv
  4. Format                                   : Matroska
  5. Format version                           : Version 4
  6. File size                                : 18.2 GiB
  7. Duration                                 : 1 h 39 min
  8. Overall bit rate mode                    : Variable
  9. Overall bit rate                         : 26.3 Mb/s
  10. Encoded date                             : UTC 2018-07-13 22:36:12
  11. Writing application                      : mkvmerge v25.0.0 ('Prog Noir') 64-bit
  12. Writing library                          : libebml v1.3.6 + libmatroska v1.4.9
  13.  
  14. Video
  15. ID                                       : 1
  16. Format                                   : AVC
  17. Format/Info                              : Advanced Video Codec
  18. Format profile                           : High@L4.1
  19. Format settings                          : CABAC / 4 Ref Frames
  20. Format settings, CABAC                   : Yes
  21. Format settings, Reference frames        : 4 frames
  22. Codec ID                                 : V_MPEG4/ISO/AVC
  23. Duration                                 : 1 h 39 min
  24. Bit rate mode                            : Variable
  25. Bit rate                                 : 21.9 Mb/s
  26. Maximum bit rate                         : 30.0 Mb/s
  27. Width                                    : 1 920 pixels
  28. Height                                   : 1 080 pixels
  29. Display aspect ratio                     : 16:9
  30. Frame rate mode                          : Constant
  31. Frame rate                               : 23.976 (24000/1001) FPS
  32. Standard                                 : NTSC
  33. Color space                              : YUV
  34. Chroma subsampling                       : 4:2:0
  35. Bit depth                                : 8 bits
  36. Scan type                                : Progressive
  37. Bits/(Pixel*Frame)                       : 0.441
  38. Stream size                              : 15.2 GiB (83%)
  39. Title                                    : English
  40. Language                                 : English
  41. Default                                  : Yes
  42. Forced                                   : No
  43. Color range                              : Limited
  44. Color primaries                          : BT.709
  45. Transfer characteristics                 : BT.709
  46. Matrix coefficients                      : BT.709
  47.  
  48. Audio #1
  49. ID                                       : 2
  50. Format                                   : DTS XLL
  51. Format/Info                              : Digital Theater Systems
  52. Commercial name                          : DTS-HD Master Audio
  53. Codec ID                                 : A_DTS
  54. Duration                                 : 1 h 39 min
  55. Bit rate mode                            : Variable
  56. Bit rate                                 : 1 723 kb/s
  57. Channel(s)                               : 6 channels
  58. Channel layout                           : C L R Ls Rs LFE
  59. Sampling rate                            : 48.0 kHz
  60. Frame rate                               : 93.750 FPS (512 SPF)
  61. Bit depth                                : 16 bits
  62. Compression mode                         : Lossless
  63. Stream size                              : 1.20 GiB (7%)
  64. Title                                    : English
  65. Language                                 : English
  66. Default                                  : Yes
  67. Forced                                   : No
  68.  
  69. Audio #2
  70. ID                                       : 3
  71. Format                                   : DTS
  72. Format/Info                              : Digital Theater Systems
  73. Codec ID                                 : A_DTS
  74. Duration                                 : 1 h 39 min
  75. Bit rate mode                            : Constant
  76. Bit rate                                 : 768 kb/s
  77. Channel(s)                               : 2 channels
  78. Channel layout                           : L R
  79. Sampling rate                            : 48.0 kHz
  80. Frame rate                               : 93.750 FPS (512 SPF)
  81. Bit depth                                : 24 bits
  82. Compression mode                         : Lossy
  83. Stream size                              : 546 MiB (3%)
  84. Title                                    : English commentary
  85. Language                                 : English
  86. Default                                  : No
  87. Forced                                   : No
  88.  
  89. Audio #3
  90. ID                                       : 4
  91. Format                                   : DTS XLL
  92. Format/Info                              : Digital Theater Systems
  93. Commercial name                          : DTS-HD Master Audio
  94. Codec ID                                 : A_DTS
  95. Duration                                 : 1 h 39 min
  96. Bit rate mode                            : Variable
  97. Bit rate                                 : 1 705 kb/s
  98. Channel(s)                               : 6 channels
  99. Channel layout                           : C L R Ls Rs LFE
  100. Sampling rate                            : 48.0 kHz
  101. Frame rate                               : 93.750 FPS (512 SPF)
  102. Bit depth                                : 16 bits
  103. Compression mode                         : Lossless
  104. Stream size                              : 1.18 GiB (6%)
  105. Title                                    : German
  106. Language                                 : German
  107. Default                                  : No
  108. Forced                                   : No
  109.  
  110. Text
  111. ID                                       : 5
  112. Format                                   : PGS
  113. Codec ID                                 : S_HDMV/PGS
  114. Codec ID/Info                            : Picture based subtitle format used on BDs/HD-DVDs
  115. Duration                                 : 1 h 34 min
  116. Bit rate                                 : 156 kb/s
  117. Count of elements                        : 3570
  118. Stream size                              : 105 MiB (1%)
  119. Title                                    : German
  120. Language                                 : German
  121. Default                                  : No
  122. Forced                                   : No
  123.  
  124. Menu
  125. 00:00:00.000                             : en:00:00:00.000
  126. 00:10:33.466                             : en:00:10:33.466
  127. 00:16:21.564                             : en:00:16:21.564
  128. 00:25:49.840                             : en:00:25:49.840
  129. 00:34:55.051                             : en:00:34:55.051
  130. 00:45:23.429                             : en:00:45:23.429
  131. 00:52:25.893                             : en:00:52:25.893
  132. 01:00:57.612                             : en:01:00:57.612
  133. 01:11:51.933                             : en:01:11:51.933
  134. 01:16:10.733                             : en:01:16:10.733
  135. 01:23:10.402                             : en:01:23:10.402
  136. 01:36:08.262                             : en:01:36:08.262
RAW Paste Data
We use cookies for various purposes including analytics. By continuing to use Pastebin, you agree to our use of cookies as described in the Cookies Policy. OK, I Understand
 
Top