Secasa

Untitled

Aug 3rd, 2015
22
Never
Not a member of Pastebin yet? Sign Up, it unlocks many cool features!
  1. Format : Matroska
  2. Format version : Version 4 / Version 2
  3. File size : 4.54 GiB
  4. Duration : 1h 36mn
  5. Overall bit rate mode : Variable
  6. Overall bit rate : 6 721 Kbps
  7. Encoded date : UTC 2015-08-02 03:40:15
  8. Writing application : mkvmerge v7.5.0 ('Glass Culture') 32bit built on Jan 4 2015 16:37:25
  9. Writing library : libebml v1.3.1 + libmatroska v1.4.2
  10. DURATION : 00:35:15.916000000
  11. NUMBER_OF_FRAMES : 13
  12. NUMBER_OF_BYTES : 510
  13. _STATISTICS_WRITING_APP : mkvmerge v7.5.0 ('Glass Culture') 32bit built on Jan 4 2015 16:37:25
  14. _STATISTICS_WRITING_DATE_UTC : 2015-08-02 03:40:15
  15. _STATISTICS_TAGS : BPS DURATION NUMBER_OF_FRAMES NUMBER_OF_BYTES
  16.  
  17. Video
  18. ID : 1
  19. Format : AVC
  20. Format/Info : Advanced Video Codec
  21. Format profile : High@L4.1
  22. Format settings, CABAC : Yes
  23. Format settings, ReFrames : 4 frames
  24. Codec ID : V_MPEG4/ISO/AVC
  25. Duration : 1h 36mn
  26. Nominal bit rate : 4 500 Kbps
  27. Width : 1 920 pixels
  28. Height : 808 pixels
  29. Display aspect ratio : 2.40:1
  30. Frame rate mode : Constant
  31. Frame rate : 24.000 fps
  32. Color space : YUV
  33. Chroma subsampling : 4:2:0
  34. Bit depth : 8 bits
  35. Scan type : Progressive
  36. Bits/(Pixel*Frame) : 0.121
  37. Writing library : x264 core 142 r2479 dd79a61
  38. Encoding settings : cabac=1 / ref=2 / deblock=1:-1:-1 / analyse=0x3:0x113 / me=hex / subme=6 / psy=1 / psy_rd=1.00:0.15 / mixed_ref=1 / me_range=16 / chroma_me=1 / trellis=1 / 8x8dct=1 / cqm=0 / deadzone=21,11 / fast_pskip=1 / chroma_qp_offset=-3 / threads=36 / lookahead_threads=6 / sliced_threads=0 / nr=0 / decimate=1 / interlaced=0 / bluray_compat=0 / constrained_intra=0 / bframes=3 / b_pyramid=2 / b_adapt=1 / b_bias=0 / direct=1 / weightb=1 / open_gop=0 / weightp=1 / keyint=240 / keyint_min=24 / scenecut=40 / intra_refresh=0 / rc_lookahead=30 / rc=abr / mbtree=1 / bitrate=4500 / ratetol=1.0 / qcomp=0.60 / qpmin=0 / qpmax=69 / qpstep=4 / vbv_maxrate=62500 / vbv_bufsize=78125 / nal_hrd=none / filler=0 / ip_ratio=1.40 / aq=1:1.00
  39. Default : Yes
  40. Forced : No
  41. DURATION : 01:36:40.251000000
  42. NUMBER_OF_FRAMES : 139206
  43. NUMBER_OF_BYTES : 3098221172
  44. _STATISTICS_WRITING_APP : mkvmerge v7.5.0 ('Glass Culture') 32bit built on Jan 4 2015 16:37:25
  45. _STATISTICS_WRITING_DATE_UTC : 2015-08-02 03:40:15
  46. _STATISTICS_TAGS : BPS DURATION NUMBER_OF_FRAMES NUMBER_OF_BYTES
  47. Color primaries : BT.709
  48. Transfer characteristics : BT.709
  49. Matrix coefficients : BT.709
  50.  
  51. Audio #1
  52. ID : 2
  53. Format : DTS
  54. Format/Info : Digital Theater Systems
  55. Format profile : MA / Core
  56. Mode : 16
  57. Format settings, Endianness : Big
  58. Codec ID : A_DTS
  59. Duration : 1h 36mn
  60. Bit rate mode : Variable
  61. Bit rate : Unknown / 960 Kbps
  62. Channel count : 6 channels
  63. Channel positions : Front: L C R, Side: L R, LFE
  64. Sampling rate : 48.0 KHz
  65. Bit depth : 16 bits
  66. Compression mode : Lossless / Lossy
  67. Delay relative to video : -83ms
  68. Language : Spanish
  69. Default : No
  70. Forced : Yes
  71.  
  72. Audio #2
  73. ID : 3
  74. Format : AC-3
  75. Format/Info : Audio Coding 3
  76. Mode extension : CM (complete main)
  77. Format settings, Endianness : Big
  78. Codec ID : A_AC3
  79. Duration : 1h 36mn
  80. Bit rate mode : Constant
  81. Bit rate : 448 Kbps
  82. Channel count : 6 channels
  83. Channel positions : Front: L C R, Side: L R, LFE
  84. Sampling rate : 48.0 KHz
  85. Bit depth : 16 bits
  86. Compression mode : Lossy
  87. Delay relative to video : -83ms
  88. Stream size : 310 MiB (7%)
  89. Language : Spanish
  90. Default : No
  91. Forced : No
  92.  
  93. Audio #3
  94. ID : 4
  95. Format : AC-3
  96. Format/Info : Audio Coding 3
  97. Mode extension : CM (complete main)
  98. Format settings, Endianness : Big
  99. Codec ID : A_AC3
  100. Duration : 1h 36mn
  101. Bit rate mode : Constant
  102. Bit rate : 448 Kbps
  103. Channel count : 6 channels
  104. Channel positions : Front: L C R, Side: L R, LFE
  105. Sampling rate : 48.0 KHz
  106. Bit depth : 16 bits
  107. Compression mode : Lossy
  108. Delay relative to video : -83ms
  109. Stream size : 310 MiB (7%)
  110. Language : English
  111. Default : No
  112. Forced : No
  113.  
  114. Text #1
  115. ID : 5
  116. Format : UTF-8
  117. Codec ID : S_TEXT/UTF8
  118. Codec ID/Info : UTF-8 Plain Text
  119. Language : Spanish
  120. Default : Yes
  121. Forced : Yes
  122.  
  123. Text #2
  124. ID : 6
  125. Format : PGS
  126. Muxing mode : zlib
  127. Codec ID : S_HDMV/PGS
  128. Codec ID/Info : The same subtitle format used on BDs/HD-DVDs
  129. Language : Spanish
  130. Default : No
  131. Forced : No
  132.  
  133. Text #3
  134. ID : 7
  135. Format : PGS
  136. Muxing mode : zlib
  137. Codec ID : S_HDMV/PGS
  138. Codec ID/Info : The same subtitle format used on BDs/HD-DVDs
  139. Language : Catalan
  140. Default : No
  141. Forced : No
  142.  
  143. Menu
  144. 00:00:00.000 : en:(01)00:00:00:000
  145. 00:14:50.833 : en:(02)00:14:50:833
  146. 00:24:11.208 : en:(03)00:24:11:208
  147. 00:34:39.541 : en:(04)00:34:39:541
  148. 00:46:41.208 : en:(05)00:46:41:208
  149. 00:57:21.291 : en:(06)00:57:21:291
  150. 01:09:19.500 : en:(07)01:09:19:500
  151. 01:20:20.000 : en:(08)01:20:20:000
RAW Paste Data