GrabHD

Untitled

Jan 1st, 2021
41
Never
Not a member of Pastebin yet? Sign Up, it unlocks many cool features!
  1. General
  2. Unique ID : 250036825275149844392284165968866588171 (0xBC1B574533C8CD0097261D8FE52C360B)
  3. Complete name : Dragon.Rider.2020.WEB-DL.1080p.mkv
  4. Format : Matroska
  5. Format version : Version 4 / Version 2
  6. File size : 3.38 GiB
  7. Duration : 1 h 31 min
  8. Overall bit rate : 5 283 kb/s
  9. Encoded date : UTC 2021-01-01 11:56:55
  10. Writing application : mkvmerge v7.8.0 ('River Man') 32bit built on Apr 3 2015 12:11:22
  11. Writing library : libebml v1.3.1 + libmatroska v1.4.2
  12.  
  13. Video
  14. ID : 1
  15. Format : AVC
  16. Format/Info : Advanced Video Codec
  17. Format profile : High@L4
  18. Format settings, CABAC : Yes
  19. Format settings, RefFrames : 5 frames
  20. Codec ID : V_MPEG4/ISO/AVC
  21. Duration : 1 h 31 min
  22. Bit rate : 4 513 kb/s
  23. Width : 1 920 pixels
  24. Height : 804 pixels
  25. Display aspect ratio : 2.40:1
  26. Frame rate mode : Constant
  27. Frame rate : 24.000 FPS
  28. Color space : YUV
  29. Chroma subsampling : 4:2:0
  30. Bit depth : 8 bits
  31. Scan type : Progressive
  32. Bits/(Pixel*Frame) : 0.122
  33. Stream size : 2.88 GiB (85%)
  34. Language : English
  35. Default : Yes
  36. Forced : No
  37. Color range : Limited
  38. Color primaries : BT.709
  39. Transfer characteristics : BT.709
  40. Matrix coefficients : BT.709
  41.  
  42. Audio #1
  43. ID : 2
  44. Format : AC-3
  45. Format/Info : Audio Coding 3
  46. Format settings, Endianness : Big
  47. Codec ID : A_AC3
  48. Duration : 1 h 31 min
  49. Bit rate mode : Constant
  50. Bit rate : 384 kb/s
  51. Channel(s) : 6 channels
  52. Channel positions : Front: L C R, Side: L R, LFE
  53. Sampling rate : 48.0 kHz
  54. Frame rate : 31.250 FPS (1536 SPF)
  55. Bit depth : 16 bits
  56. Compression mode : Lossy
  57. Stream size : 251 MiB (7%)
  58. Title : iTunes
  59. Language : Russian
  60. Service kind : Complete Main
  61. Default : Yes
  62. Forced : No
  63.  
  64. Audio #2
  65. ID : 3
  66. Format : AC-3
  67. Format/Info : Audio Coding 3
  68. Format settings, Endianness : Big
  69. Codec ID : A_AC3
  70. Duration : 1 h 31 min
  71. Bit rate mode : Constant
  72. Bit rate : 384 kb/s
  73. Channel(s) : 6 channels
  74. Channel positions : Front: L C R, Side: L R, LFE
  75. Sampling rate : 48.0 kHz
  76. Frame rate : 31.250 FPS (1536 SPF)
  77. Bit depth : 16 bits
  78. Compression mode : Lossy
  79. Stream size : 251 MiB (7%)
  80. Title : iTunes
  81. Language : Ukrainian
  82. Service kind : Complete Main
  83. Default : No
  84. Forced : No
  85.  
  86. Menu
  87. 00:00:00.000 : en:Глава 1
  88. 00:08:41.500 : en:Глава 2
  89. 00:16:54.708 : en:Глава 3
  90. 00:25:04.624 : en:Глава 4
  91. 00:33:06.665 : en:Глава 5
  92. 00:41:45.123 : en:Глава 6
  93. 00:49:48.623 : en:Глава 7
  94. 00:58:09.164 : en:Глава 8
  95. 01:06:22.080 : en:Глава 9
  96. 01:14:31.871 : en:Глава 10
  97. 01:22:38.954 : en:Глава 11
RAW Paste Data