HYBRID_BEING

[KamiFS] Sakamoto Desu ga - 02 [720p x264] [10bit] [7E390E6B] V2.mkv

Jul 6th, 2016
159
Never
Not a member of Pastebin yet? Sign Up, it unlocks many cool features!
  1. General
  2. Unique ID : 184764050217323873987320961751663334752 (0x8B0042FE82005403827C07F9138D5560)
  3. Complete name : [KamiFS] Sakamoto Desu ga - 02 [720p x264] [10bit] [7E390E6B] V2.mkv
  4. Format : Matroska
  5. Format version : Version 4 / Version 2
  6. File size : 301 MiB
  7. Duration : 25mn 1s
  8. Overall bit rate : 1 683 Kbps
  9. Encoded date : UTC 2016-04-26 04:21:20
  10. Writing application : mkvmerge v9.1.0 ('Little Earthquakes') 64bit
  11. Writing library : libebml v1.3.3 + libmatroska v1.4.4
  12. Attachments : Arial Bold.ttf / ARTIFIKA-MEDIUM.TTF / BRADHITC.TTF / BrushTypeBold_1.ttf / BubblegumSans-Regular.otf / CapricaSans.ttf / crayon kids_0.ttf / DK Black Bamboo_1.ttf / FEASFBRG_1.TTF / GUINEAPIGS.TTF / KGBlankSpaceSolid.ttf / Roboto-Bold.ttf / ShunSet-Regular_1.ttf / Tabac-G3Medium_0.otf / Ubuntu-B.ttf / 9SALERNO.TTF / 9THYSSEN.TTF / Aero Matics Bold Italic.ttf / AlexanderBecker-Medium Italic.ttf / AlexanderBecker-Medium.ttf / ARCENA_4.ttf / Ardeco.ttf
  13.  
  14. Video
  15. ID : 1
  16. Format : AVC
  17. Format/Info : Advanced Video Codec
  18. Format profile : High 10@L4
  19. Format settings, CABAC : Yes
  20. Format settings, ReFrames : 9 frames
  21. Codec ID : V_MPEG4/ISO/AVC
  22. Duration : 24mn 29s
  23. Bit rate : 1 495 Kbps
  24. Width : 1 280 pixels
  25. Height : 720 pixels
  26. Display aspect ratio : 16:9
  27. Frame rate mode : Constant
  28. Frame rate : 23.976 (23976/1000) fps
  29. Color space : YUV
  30. Chroma subsampling : 4:2:0
  31. Bit depth : 10 bits
  32. Scan type : Progressive
  33. Bits/(Pixel*Frame) : 0.068
  34. Stream size : 262 MiB (87%)
  35. Writing library : x264 core 148 r2665+53 6629127 t_mod_Custom [10-bit@all X86]
  36. Encoding settings : cabac=1 / ref=9 / deblock=1:-1:0 / analyse=0x3:0x113 / me=umh / subme=10 / psy=1 / fade_compensate=0.00 / psy_rd=0.70:0.00 / mixed_ref=1 / me_range=28 / chroma_me=1 / trellis=2 / 8x8dct=1 / cqm=0 / deadzone=21,11 / fast_pskip=0 / chroma_qp_offset=-2 / threads=9 / lookahead_threads=1 / sliced_threads=0 / nr=0 / decimate=1 / interlaced=0 / bluray_compat=0 / constrained_intra=0 / fgo=0 / bframes=14 / b_pyramid=2 / b_adapt=1 / b_bias=0 / direct=1 / weightb=1 / open_gop=0 / weightp=2 / keyint=300 / keyint_min=23 / scenecut=40 / intra_refresh=0 / rc_lookahead=45 / rc=crf / mbtree=1 / crf=17.0000 / qcomp=0.60 / qpmin=0:0:0 / qpmax=81:81:81 / qpstep=4 / ip_ratio=1.40 / aq=3:0.70 / aq-sensitivity=10.00 / aq-factor=1.00:1.00:1.00 / aq2=0 / aq3=0
  37. Default : Yes
  38. Forced : No
  39.  
  40. Audio
  41. ID : 2
  42. Format : AAC
  43. Format/Info : Advanced Audio Codec
  44. Format profile : LC
  45. Codec ID : A_AAC
  46. Duration : 24mn 29s
  47. Bit rate : 192 Kbps
  48. Channel(s) : 2 channels
  49. Channel positions : Front: L R
  50. Sampling rate : 48.0 KHz
  51. Frame rate : 46.875 fps (1024 spf)
  52. Compression mode : Lossy
  53. Stream size : 33.1 MiB (11%)
  54. Language : Japanese
  55. Default : Yes
  56. Forced : No
  57.  
  58. Text
  59. ID : 3
  60. Format : ASS
  61. Codec ID : S_TEXT/ASS
  62. Codec ID/Info : Advanced Sub Station Alpha
  63. Duration : 24mn 59s
  64. Bit rate : 15.7 Kbps
  65. Count of elements : 16951
  66. Compression mode : Lossless
  67. Stream size : 2.80 MiB (1%)
  68. Default : Yes
  69. Forced : No
RAW Paste Data