SHARE
TWEET

Rock my Heart WEB-DL 720p

dirtyharrys Jun 18th, 2019 55 Never
Not a member of Pastebin yet? Sign Up, it unlocks many cool features!
  1. General
  2. Unique ID                   : 282214991528902164353219179328953208098 (0xD450A15AF36CCEFEE55CC99A31C14D22)
  3. Complete name               : E:\V0VCUm9ja215SGVhcnQ.mkv
  4. Format                      : Matroska
  5. Format version              : Version 4
  6. File size                   : 1.28 GiB
  7. Duration                    : 1 h 49 min
  8. Overall bit rate mode       : Variable
  9. Overall bit rate            : 1 665 kb/s
  10. Movie name                  : Rock my Heart WEB-DL / Rock my Heart WEB-DL
  11. Encoded date                : UTC 2019-06-17 09:13:43
  12. Writing application         : mkvmerge v30.1.0 ('Forever And More') 32-bit
  13. Writing library             : libebml v1.3.6 + libmatroska v1.4.9
  14. Copyright                   : Movies HDs 2019
  15. ARTIST                      : HarshLearner
  16.  
  17. Video
  18. ID                          : 1
  19. Format                      : AVC
  20. Format/Info                 : Advanced Video Codec
  21. Format profile              : High@L3.1
  22. Format settings             : CABAC / 4 Ref Frames
  23. Format settings, CABAC      : Yes
  24. Format settings, ReFrames   : 4 frames
  25. Codec ID                    : V_MPEG4/ISO/AVC
  26. Duration                    : 1 h 49 min
  27. Bit rate mode               : Variable
  28. Bit rate                    : 895 kb/s
  29. Maximum bit rate            : 14.0 Mb/s
  30. Width                       : 1 280 pixels
  31. Height                      : 720 pixels
  32. Display aspect ratio        : 16:9
  33. Frame rate mode             : Constant
  34. Frame rate                  : 24.000 FPS
  35. Color space                 : YUV
  36. Chroma subsampling          : 4:2:0
  37. Bit depth                   : 8 bits
  38. Scan type                   : Progressive
  39. Bits/(Pixel*Frame)          : 0.040
  40. Stream size                 : 703 MiB (54%)
  41. Title                       : Rock my Heart
  42. Writing library             : x264 core 148 r2715 7e75228
  43. Default                     : Yes
  44. Forced                      : No
  45.  
  46. Audio #1
  47. ID                          : 2
  48. Format                      : AC-3
  49. Format/Info                 : Audio Coding 3
  50. Commercial name             : Dolby Digital
  51. Codec ID                    : A_AC3
  52. Duration                    : 1 h 49 min
  53. Bit rate mode               : Constant
  54. Bit rate                    : 384 kb/s
  55. Channel(s)                  : 6 channels
  56. Channel layout              : L R C LFE Ls Rs
  57. Sampling rate               : 48.0 kHz
  58. Frame rate                  : 31.250 FPS (1536 SPF)
  59. Bit depth                   : 16 bits
  60. Compression mode            : Lossy
  61. Stream size                 : 302 MiB (23%)
  62. Language                    : English
  63. Service kind                : Complete Main
  64. Default                     : No
  65. Forced                      : No
  66.  
  67. Audio #2
  68. ID                          : 3
  69. Format                      : AC-3
  70. Format/Info                 : Audio Coding 3
  71. Commercial name             : Dolby Digital
  72. Codec ID                    : A_AC3
  73. Duration                    : 1 h 49 min
  74. Bit rate mode               : Constant
  75. Bit rate                    : 384 kb/s
  76. Channel(s)                  : 6 channels
  77. Channel layout              : L R C LFE Ls Rs
  78. Sampling rate               : 48.0 kHz
  79. Frame rate                  : 31.250 FPS (1536 SPF)
  80. Bit depth                   : 16 bits
  81. Compression mode            : Lossy
  82. Stream size                 : 302 MiB (23%)
  83. Language                    : Spanish
  84. Service kind                : Complete Main
  85. Default                     : Yes
  86. Forced                      : No
  87.  
  88. Text #1
  89. ID                          : 4
  90. Format                      : UTF-8
  91. Codec ID                    : S_TEXT/UTF8
  92. Codec ID/Info               : UTF-8 Plain Text
  93. Duration                    : 1 h 49 min
  94. Bit rate                    : 38 b/s
  95. Count of elements           : 1152
  96. Stream size                 : 30.6 KiB (0%)
  97. Language                    : Spanish
  98. Default                     : Yes
  99. Forced                      : Yes
  100.  
  101. Text #2
  102. ID                          : 5
  103. Format                      : UTF-8
  104. Codec ID                    : S_TEXT/UTF8
  105. Codec ID/Info               : UTF-8 Plain Text
  106. Duration                    : 1 h 49 min
  107. Bit rate                    : 0 b/s
  108. Count of elements           : 12
  109. Stream size                 : 260 Bytes (0%)
  110. Language                    : Spanish
  111. Default                     : No
  112. Forced                      : Yes
RAW Paste Data
We use cookies for various purposes including analytics. By continuing to use Pastebin, you agree to our use of cookies as described in the Cookies Policy. OK, I Understand
Not a member of Pastebin yet?
Sign Up, it unlocks many cool features!
 
Top