mft39anton

Untitled

Dec 16th, 2017
57
Never
Not a member of Pastebin yet? Sign Up, it unlocks many cool features!
  1. General
  2. Unique ID : 193714775182378503654440863149598893680 (0x91BC1BCE7B1BE4DB9A5248B95A3EE670)
  3. Complete name : F:\HDS\El accidente 1x03 Apariciones [HDTV 1080i AVC MP2][GrupoHDS].mkv
  4. Format : Matroska
  5. Format version : Version 4 / Version 2
  6. File size : 3.33 GiB
  7. Duration : 1 h 17 min
  8. Overall bit rate : 6 155 kb/s
  9. Movie name : El accidente 1x03 Apariciones [HDTV 1080i AVC MP2][GrupoHDS]
  10. Encoded date : UTC 2017-12-14 05:42:41
  11. Writing application : mkvmerge v17.0.0 ('Be Ur Friend') 64-bit
  12. Writing library : libebml v1.3.5 + libmatroska v1.4.8
  13.  
  14. Video
  15. ID : 1
  16. Format : AVC
  17. Format/Info : Advanced Video Codec
  18. Format profile : High@L4
  19. Format settings : CABAC / 4 Ref Frames
  20. Format settings, CABAC : Yes
  21. Format settings, RefFrames : 4 frames
  22. Codec ID : V_MPEG4/ISO/AVC
  23. Duration : 1 h 17 min
  24. Bit rate : 5 961 kb/s
  25. Width : 1 920 pixels
  26. Height : 1 080 pixels
  27. Display aspect ratio : 16:9
  28. Frame rate mode : Constant
  29. Frame rate : 25.000 FPS
  30. Standard : Component
  31. Color space : YUV
  32. Chroma subsampling : 4:2:0
  33. Bit depth : 8 bits
  34. Scan type : MBAFF
  35. Scan type, store method : Interleaved fields
  36. Scan order : Top Field First
  37. Bits/(Pixel*Frame) : 0.115
  38. Stream size : 3.22 GiB (97%)
  39. Title : El accidente 1x03 Apariciones [HDTV 1080i AVC MP2][GrupoHDS]
  40. Language : Spanish
  41. Default : Yes
  42. Forced : No
  43. Color range : Limited
  44. Color primaries : BT.709
  45. Transfer characteristics : BT.709
  46. Matrix coefficients : BT.709
  47.  
  48. Audio
  49. ID : 2
  50. Format : MPEG Audio
  51. Format version : Version 1
  52. Format profile : Layer 2
  53. Codec ID : A_MPEG/L2
  54. Codec ID/Hint : MP2
  55. Duration : 1 h 17 min
  56. Bit rate mode : Constant
  57. Bit rate : 192 kb/s
  58. Channel(s) : 2 channels
  59. Sampling rate : 48.0 kHz
  60. Frame rate : 41.667 FPS (1152 SPF)
  61. Compression mode : Lossy
  62. Stream size : 106 MiB (3%)
  63. Language : Spanish
  64. Default : Yes
  65. Forced : No
RAW Paste Data