SHARE
TWEET

Unfriended: Dark Web BluRay 720p

dirtyharrys Apr 25th, 2019 78 Never
Not a member of Pastebin yet? Sign Up, it unlocks many cool features!
  1. General
  2. Unique ID                   : 188099073113047298032004689346020600575 (0x8D829051652333C4B492DEA6BD896AFF)
  3. Complete name               : E:\QlJSVW5mcmllbmRlZERhcmtXZWI.mkv
  4. Format                      : Matroska
  5. Format version              : Version 4
  6. File size                   : 1.43 GiB
  7. Duration                    : 1 h 32 min
  8. Overall bit rate            : 2 206 kb/s
  9. Movie name                  : Unfriended: Dark Web BR-RIP / Unfriended: Dark Web BR-RIP
  10. Encoded date                : UTC 2019-04-25 06:44:12
  11. Writing application         : mkvmerge v30.1.0 ('Forever And More') 32-bit
  12. Writing library             : libebml v1.3.6 + libmatroska v1.4.9
  13. Copyright                   : Movies HDs 2019
  14. ARTIST                      : HarshLearner
  15.  
  16. Video
  17. ID                          : 1
  18. Format                      : AVC
  19. Format/Info                 : Advanced Video Codec
  20. Format profile              : High@L4.1
  21. Format settings             : CABAC / 4 Ref Frames
  22. Format settings, CABAC      : Yes
  23. Format settings, ReFrames   : 4 frames
  24. Codec ID                    : V_MPEG4/ISO/AVC
  25. Duration                    : 1 h 32 min
  26. Bit rate                    : 1 500 kb/s
  27. Width                       : 1 280 pixels
  28. Height                      : 720 pixels
  29. Display aspect ratio        : 16:9
  30. Frame rate mode             : Constant
  31. Frame rate                  : 23.976 (24000/1001) FPS
  32. Original frame rate         : 23.976 (23976/1000) FPS
  33. Color space                 : YUV
  34. Chroma subsampling          : 4:2:0
  35. Bit depth                   : 8 bits
  36. Scan type                   : Progressive
  37. Bits/(Pixel*Frame)          : 0.068
  38. Stream size                 : 992 MiB (68%)
  39. Title                       : Unfriended: Dark Web
  40. Writing library             : x264 core 152 r2851M ba24899
  41. Default                     : Yes
  42. Forced                      : No
  43.  
  44. Audio #1
  45. ID                          : 2
  46. Format                      : AC-3
  47. Format/Info                 : Audio Coding 3
  48. Commercial name             : Dolby Digital
  49. Codec ID                    : A_AC3
  50. Duration                    : 1 h 32 min
  51. Bit rate mode               : Constant
  52. Bit rate                    : 448 kb/s
  53. Channel(s)                  : 6 channels
  54. Channel layout              : L R C LFE Ls Rs
  55. Sampling rate               : 48.0 kHz
  56. Frame rate                  : 31.250 FPS (1536 SPF)
  57. Bit depth                   : 16 bits
  58. Compression mode            : Lossy
  59. Stream size                 : 296 MiB (20%)
  60. Language                    : English
  61. Service kind                : Complete Main
  62. Default                     : No
  63. Forced                      : No
  64.  
  65. Audio #2
  66. ID                          : 3
  67. Format                      : AC-3
  68. Format/Info                 : Audio Coding 3
  69. Commercial name             : Dolby Digital
  70. Codec ID                    : A_AC3
  71. Duration                    : 1 h 32 min
  72. Bit rate mode               : Constant
  73. Bit rate                    : 256 kb/s
  74. Channel(s)                  : 2 channels
  75. Channel layout              : L R
  76. Sampling rate               : 48.0 kHz
  77. Frame rate                  : 31.250 FPS (1536 SPF)
  78. Bit depth                   : 16 bits
  79. Compression mode            : Lossy
  80. Stream size                 : 169 MiB (12%)
  81. Language                    : Spanish
  82. Service kind                : Complete Main
  83. Default                     : Yes
  84. Forced                      : Yes
  85.  
  86. Text #1
  87. ID                          : 4
  88. Format                      : UTF-8
  89. Codec ID                    : S_TEXT/UTF8
  90. Codec ID/Info               : UTF-8 Plain Text
  91. Duration                    : 1 h 24 min
  92. Bit rate                    : 63 b/s
  93. Count of elements           : 1138
  94. Stream size                 : 39.3 KiB (0%)
  95. Language                    : English
  96. Default                     : No
  97. Forced                      : No
  98.  
  99. Text #2
  100. ID                          : 5
  101. Format                      : UTF-8
  102. Codec ID                    : S_TEXT/UTF8
  103. Codec ID/Info               : UTF-8 Plain Text
  104. Duration                    : 1 h 27 min
  105. Bit rate                    : 87 b/s
  106. Count of elements           : 1417
  107. Stream size                 : 56.1 KiB (0%)
  108. Language                    : Spanish
  109. Default                     : Yes
  110. Forced                      : Yes
  111.  
  112. Text #3
  113. ID                          : 6
  114. Format                      : UTF-8
  115. Codec ID                    : S_TEXT/UTF8
  116. Codec ID/Info               : UTF-8 Plain Text
  117. Duration                    : 1 h 27 min
  118. Bit rate                    : 8 b/s
  119. Count of elements           : 200
  120. Stream size                 : 5.30 KiB (0%)
  121. Language                    : Spanish
  122. Default                     : No
  123. Forced                      : No
  124.  
  125. Menu
  126. 00:00:00.000                : :00:00:00.000
  127. 00:05:06.306                : :00:05:06.306
  128. 00:11:11.588                : :00:11:11.588
  129. 00:16:17.351                : :00:16:17.268
  130. 00:22:41.652                : :00:22:41.652
  131. 00:27:19.596                : :00:27:19.555
  132. 00:31:02.277                : :00:31:02.194
  133. 00:35:30.670                : :00:35:30.670
  134. 00:39:35.957                : :00:39:35.957
  135. 00:45:11.042                : :00:45:10.917
  136. 00:50:26.524                : :00:50:26.523
  137. 00:55:02.049                : :00:55:01.965
  138. 00:57:51.093                : :00:57:50.967
  139. 01:01:02.742                : :01:01:02.742
  140. 01:05:25.672                : :01:05:25.672
  141. 01:09:21.658                : :01:09:21.574
  142. 01:12:11.577                : :01:12:11.536
  143. 01:19:58.377                : :01:19:58.335
  144. 01:25:13.984                : :01:25:13.984
  145. 01:29:17.644                : :01:29:17.644
RAW Paste Data
We use cookies for various purposes including analytics. By continuing to use Pastebin, you agree to our use of cookies as described in the Cookies Policy. OK, I Understand
 
Top