Interfilm

Untitled

Nov 10th, 2014
143
Never
Not a member of Pastebin yet? Sign Up, it unlocks many cool features!
  1. General
  2. The.Cottage.2012.WEB-DL.720p.CINEMANIA.mkv
  3. Format : Matroska
  4. Format version : Version 4 / Version 2
  5. File size : 2.85 GiB
  6. Duration : 1h 27mn
  7. Overall bit rate : 4 668 Kbps
  8. Movie name : Release Group CINEMANIA
  9. Encoded date : UTC 2014-11-10 09:07:04
  10. Writing application : mkvmerge v7.3.0 ('Nouages') 64bit built on Oct 22 2014 18:53:34
  11. Writing library : libebml v1.3.0 + libmatroska v1.4.1
  12.  
  13. Video
  14. ID : 1
  15. Format : AVC
  16. Format/Info : Advanced Video Codec
  17. Format profile : High@L3.1
  18. Format settings, CABAC : No
  19. Format settings, ReFrames : 2 frames
  20. Codec ID : V_MPEG4/ISO/AVC
  21. Duration : 1h 27mn
  22. Bit rate : 3 743 Kbps
  23. Width : 1 280 pixels
  24. Height : 720 pixels
  25. Display aspect ratio : 16:9
  26. Frame rate mode : Constant
  27. Frame rate : 23.976 fps
  28. Color space : YUV
  29. Chroma subsampling : 4:2:0
  30. Bit depth : 8 bits
  31. Scan type : Progressive
  32. Bits/(Pixel*Frame) : 0.169
  33. Stream size : 2.29 GiB (80%)
  34. Title : Release Group CINEMANIA
  35. Language : English
  36. Default : No
  37. Forced : No
  38. Color primaries : BT.709
  39. Transfer characteristics : BT.709
  40. Matrix coefficients : BT.709
  41.  
  42. Audio #1
  43. ID : 2
  44. Format : AC-3
  45. Format/Info : Audio Coding 3
  46. Mode extension : CM (complete main)
  47. Format settings, Endianness : Big
  48. Codec ID : A_AC3
  49. Duration : 1h 27mn
  50. Bit rate mode : Constant
  51. Bit rate : 448 Kbps
  52. Channel(s) : 6 channels
  53. Channel positions : Front: L C R, Side: L R, LFE
  54. Sampling rate : 48.0 KHz
  55. Bit depth : 16 bits
  56. Compression mode : Lossy
  57. Stream size : 280 MiB (10%)
  58. Title : Лицензия
  59. Language : Russian
  60. Default : Yes
  61. Forced : Yes
  62.  
  63. Audio #2
  64. ID : 3
  65. Format : AC-3
  66. Format/Info : Audio Coding 3
  67. Mode extension : CM (complete main)
  68. Format settings, Endianness : Big
  69. Codec ID : A_AC3
  70. Duration : 1h 27mn
  71. Bit rate mode : Constant
  72. Bit rate : 384 Kbps
  73. Channel(s) : 6 channels
  74. Channel positions : Front: L C R, Side: L R, LFE
  75. Sampling rate : 48.0 KHz
  76. Bit depth : 16 bits
  77. Compression mode : Lossy
  78. Stream size : 240 MiB (8%)
  79. Language : English
  80. Default : No
  81. Forced : No
  82.  
  83. Text #2
  84. ID : 5
  85. Format : UTF-8
  86. Codec ID : S_TEXT/UTF8
  87. Codec ID/Info : UTF-8 Plain Text
  88. Language : English
  89. Default : No
  90. Forced : No
  91.  
  92. Menu
  93. 00:00:00.000 : en:Chapter 1
  94. 00:10:27.000 : en:Chapter 2
  95. 00:20:54.000 : en:Chapter 3
  96. 00:30:48.000 : en:Chapter 4
  97. 00:41:19.000 : en:Chapter 5
  98. 00:50:30.000 : en:Chapter 6
  99. 01:00:50.000 : en:Chapter 7
  100. 01:10:41.000 : en:Chapter 8
  101. 01:20:55.000 : en:Chapter 9
  102. 01:23:30.000 : en:Chapter 10
RAW Paste Data