Guest User

Mvie

a guest
Jan 8th, 2018
165
Never
Not a member of Pastebin yet? Sign Up, it unlocks many cool features!
  1. General
  2. Unique ID : 189486862021865932544086782629941501662 (0x8E8DD798086E1922BE7284F552565EDE)
  3. Complete name : [bonkai77].Escaflowne.The.Movie.1080p.Dual.Audio.Bluray [3DC74B3A].mkv
  4. Format : Matroska
  5. Format version : Version 4 / Version 2
  6. File size : 1.80 GiB
  7. Duration : 1 h 35 min
  8. Overall bit rate : 2 702 kb/s
  9. Encoded date : UTC 2016-05-22 17:45:43
  10. Writing application : mkvmerge v9.1.0 ('Little Earthquakes') 64bit
  11. Writing library : libebml v1.3.3 + libmatroska v1.4.4
  12. Attachments : ITC Franklin Gothic LT Medium Condensed.ttf
  13.  
  14. Video
  15. ID : 1
  16. Format : HEVC
  17. Format/Info : High Efficiency Video Coding
  18. Format profile : Main 10@L5@High
  19. Codec ID : V_MPEGH/ISO/HEVC
  20. Duration : 1 h 35 min
  21. Bit rate : 2 191 kb/s
  22. Width : 1 892 pixels
  23. Height : 1 044 pixels
  24. Display aspect ratio : 16:9
  25. Frame rate mode : Constant
  26. Frame rate : 23.976 (24000/1001) FPS
  27. Color space : YUV
  28. Chroma subsampling : 4:2:0
  29. Bit depth : 10 bits
  30. Bits/(Pixel*Frame) : 0.046
  31. Stream size : 1.46 GiB (81%)
  32. Title : [bonkai77]
  33. Writing library : x265 1.9+169-e5b5bdc3c154f908:[Windows][GCC 5.3.0][64 bit] 10bit: KG7x [x265.ru]
  34. Encoding settings : wpp / ctu=64 / min-cu-size=8 / max-tu-size=32 / tu-intra-depth=1 / tu-inter-depth=1 / me=3 / subme=5 / merange=57 / rect / amp / max-merge=2 / temporal-mvp / no-early-skip / recursion-skip / rdpenalty=0 / no-tskip / no-tskip-fast / no-strong-intra-smoothing / no-lossless / no-cu-lossless / no-constrained-intra / no-fast-intra / open-gop / no-temporal-layers / interlace=0 / keyint=250 / min-keyint=23 / scenecut=40 / rc-lookahead=25 / lookahead-slices=6 / bframes=8 / bframe-bias=0 / b-adapt=2 / ref=6 / limit-refs=3 / no-limit-modes / weightp / no-weightb / aq-mode=3 / qg-size=32 / aq-strength=1.00 / cbqpoffs=0 / crqpoffs=0 / rd=4 / psy-rd=2.00 / rdoq-level=0 / psy-rdoq=0.00 / no-rd-refine / signhide / deblock=0:0 / sao / no-sao-non-deblock / b-pyramid / cutree / no-intra-refresh / rc=2 / pass / bitrate=2191 / qcomp=0.60 / qpmin=0 / qpmax=51 / qpstep=4 / cplxblur=20.0 / qblur=0.5 / ipratio=1.40 / pbratio=1.30
  35. Language : English
  36. Default : Yes
  37. Forced : No
  38.  
  39. Audio #1
  40. ID : 3
  41. Format : AAC
  42. Format/Info : Advanced Audio Codec
  43. Format profile : LC
  44. Codec ID : A_AAC-2
  45. Duration : 1 h 35 min
  46. Bit rate : 254 kb/s
  47. Channel(s) : 6 channels
  48. Channel positions : Front: L C R, Side: L R, LFE
  49. Sampling rate : 48.0 kHz
  50. Frame rate : 46.875 FPS (1024 SPF)
  51. Compression mode : Lossy
  52. Delay relative to video : 9 ms
  53. Stream size : 173 MiB (9%)
  54. Language : Japanese
  55. Default : No
  56. Forced : No
  57.  
  58. Audio #2
  59. ID : 4
  60. Format : AAC
  61. Format/Info : Advanced Audio Codec
  62. Format profile : LC
  63. Codec ID : A_AAC-2
  64. Duration : 1 h 35 min
  65. Bit rate : 254 kb/s
  66. Channel(s) : 6 channels
  67. Channel positions : Front: L C R, Side: L R, LFE
  68. Sampling rate : 48.0 kHz
  69. Frame rate : 46.875 FPS (1024 SPF)
  70. Compression mode : Lossy
  71. Delay relative to video : 9 ms
  72. Stream size : 173 MiB (9%)
  73. Language : English
  74. Default : Yes
  75. Forced : No
  76.  
  77. Text
  78. ID : 2
  79. Format : ASS
  80. Codec ID : S_TEXT/ASS
  81. Codec ID/Info : Advanced Sub Station Alpha
  82. Duration : 1 h 33 min
  83. Bit rate : 106 b/s
  84. Count of elements : 1152
  85. Compression mode : Lossless
  86. Stream size : 72.7 KiB (0%)
  87. Language : English
  88. Default : No
  89. Forced : No
  90.  
  91. Menu
  92. 00:00:00.054 : en:00:00:00.054 / en:00:00:00.054
RAW Paste Data