SHARE
TWEET

The Bouncer BluRay 720p

dirtyharrys Apr 20th, 2019 85 Never
Not a member of Pastebin yet? Sign Up, it unlocks many cool features!
  1. General
  2. Unique ID                   : 108391413522675787908891214452598814152 (0x518B6D496F577C4ACFB044039168B5C8)
  3. Complete name               : E:\QlJSVGhlQm91bmNlcg.mkv
  4. Format                      : Matroska
  5. Format version              : Version 4
  6. File size                   : 1.33 GiB
  7. Duration                    : 1 h 26 min
  8. Overall bit rate            : 2 204 kb/s
  9. Movie name                  : The Bouncer BR-RIP / The Bouncer BR-RIP
  10. Encoded date                : UTC 2019-04-20 08:31:39
  11. Writing application         : mkvmerge v30.1.0 ('Forever And More') 32-bit
  12. Writing library             : libebml v1.3.6 + libmatroska v1.4.9
  13. Copyright                   : Movies HDs 2019
  14. ARTIST                      : HarshLearner
  15.  
  16. Video
  17. ID                          : 1
  18. Format                      : AVC
  19. Format/Info                 : Advanced Video Codec
  20. Format profile              : High@L4.1
  21. Format settings             : CABAC / 4 Ref Frames
  22. Format settings, CABAC      : Yes
  23. Format settings, ReFrames   : 4 frames
  24. Codec ID                    : V_MPEG4/ISO/AVC
  25. Duration                    : 1 h 26 min
  26. Bit rate                    : 1 500 kb/s
  27. Width                       : 1 280 pixels
  28. Height                      : 536 pixels
  29. Display aspect ratio        : 2.40:1
  30. Frame rate mode             : Constant
  31. Frame rate                  : 24.000 FPS
  32. Color space                 : YUV
  33. Chroma subsampling          : 4:2:0
  34. Bit depth                   : 8 bits
  35. Scan type                   : Progressive
  36. Bits/(Pixel*Frame)          : 0.091
  37. Stream size                 : 928 MiB (68%)
  38. Title                       : The Bouncer
  39. Writing library             : x264 core 152 r2851M ba24899
  40. Default                     : Yes
  41. Forced                      : No
  42.  
  43. Audio #1
  44. ID                          : 2
  45. Format                      : AC-3
  46. Format/Info                 : Audio Coding 3
  47. Commercial name             : Dolby Digital
  48. Codec ID                    : A_AC3
  49. Duration                    : 1 h 26 min
  50. Bit rate mode               : Constant
  51. Bit rate                    : 448 kb/s
  52. Channel(s)                  : 6 channels
  53. Channel layout              : L R C LFE Ls Rs
  54. Sampling rate               : 48.0 kHz
  55. Frame rate                  : 31.250 FPS (1536 SPF)
  56. Bit depth                   : 16 bits
  57. Compression mode            : Lossy
  58. Stream size                 : 278 MiB (20%)
  59. Language                    : English
  60. Service kind                : Complete Main
  61. Default                     : No
  62. Forced                      : No
  63.  
  64. Audio #2
  65. ID                          : 3
  66. Format                      : AC-3
  67. Format/Info                 : Audio Coding 3
  68. Commercial name             : Dolby Digital
  69. Codec ID                    : A_AC3
  70. Duration                    : 1 h 26 min
  71. Bit rate mode               : Constant
  72. Bit rate                    : 256 kb/s
  73. Channel(s)                  : 2 channels
  74. Channel layout              : L R
  75. Sampling rate               : 48.0 kHz
  76. Frame rate                  : 31.250 FPS (1536 SPF)
  77. Bit depth                   : 16 bits
  78. Compression mode            : Lossy
  79. Delay relative to video     : 16 ms
  80. Stream size                 : 159 MiB (12%)
  81. Language                    : Spanish
  82. Service kind                : Complete Main
  83. Default                     : Yes
  84. Forced                      : Yes
  85.  
  86. Text
  87. ID                          : 4
  88. Format                      : UTF-8
  89. Codec ID                    : S_TEXT/UTF8
  90. Codec ID/Info               : UTF-8 Plain Text
  91. Duration                    : 1 h 18 min
  92. Bit rate                    : 27 b/s
  93. Count of elements           : 601
  94. Stream size                 : 15.6 KiB (0%)
  95. Language                    : English
  96. Default                     : Yes
  97. Forced                      : No
  98.  
  99. Menu
  100. 00:00:00.000                : :Chapter 01
  101. 00:10:24.667                : :Chapter 02
  102. 00:20:53.333                : :Chapter 03
  103. 00:31:34.375                : :Chapter 04
  104. 00:44:56.167                : :Chapter 05
  105. 00:56:31.917                : :Chapter 06
  106. 01:04:37.042                : :Chapter 07
RAW Paste Data
We use cookies for various purposes including analytics. By continuing to use Pastebin, you agree to our use of cookies as described in the Cookies Policy. OK, I Understand
 
Top