SHARE
TWEET

Untitled

techraf Jul 28th, 2018 79 Never
Not a member of Pastebin yet? Sign Up, it unlocks many cool features!
  1. ffmpeg version 4.0.1 Copyright (c) 2000-2018 the FFmpeg developers
  2.   built with Apple LLVM version 8.0.0 (clang-800.0.42.1)
  3.   configuration: --prefix=/usr/local/Cellar/ffmpeg/4.0.1 --enable-shared --enable-pthreads --enable-version3 --enable-hardcoded-tables --enable-avresample --cc=clang --host-cflags='-I/Library/Java/JavaVirtualMachines/jdk1.8.0_51.jdk/Contents/Home/include -I/Library/Java/JavaVirtualMachines/jdk1.8.0_51.jdk/Contents/Home/include/darwin' --host-ldflags= --enable-gpl --enable-chromaprint --enable-ffplay --enable-frei0r --enable-libass --enable-libbluray --enable-libbs2b --enable-libcaca --enable-libfdk-aac --enable-libfontconfig --enable-libfreetype --enable-libgme --enable-libgsm --enable-libmodplug --enable-libmp3lame --enable-libopencore-amrnb --enable-libopencore-amrwb --enable-libopenh264 --enable-libopus --enable-librsvg --enable-librtmp --enable-librubberband --enable-libsnappy --enable-libsoxr --enable-libspeex --enable-libssh --enable-libtesseract --enable-libtheora --enable-libtwolame --enable-libvidstab --enable-libvorbis --enable-libvpx --enable-libwavpack --enable-libwebp --enable-libx264 --enable-libx265 --enable-libxvid --enable-libzimg --enable-libzmq --enable-opencl --enable-videotoolbox --enable-openssl --enable-libsrt --enable-lzma --enable-libopenjpeg --disable-decoder=jpeg2000 --extra-cflags=-I/usr/local/Cellar/openjpeg/2.3.0/include/openjpeg-2.3 --enable-nonfree
  4.   libavutil      56. 14.100 / 56. 14.100
  5.   libavcodec     58. 18.100 / 58. 18.100
  6.   libavformat    58. 12.100 / 58. 12.100
  7.   libavdevice    58.  3.100 / 58.  3.100
  8.   libavfilter     7. 16.100 /  7. 16.100
  9.   libavresample   4.  0.  0 /  4.  0.  0
  10.   libswscale      5.  1.100 /  5.  1.100
  11.   libswresample   3.  1.100 /  3.  1.100
  12.   libpostproc    55.  1.100 / 55.  1.100
  13. Input #0, mov,mp4,m4a,3gp,3g2,mj2, from 'test-source.mov':
  14.   Metadata:
  15.     major_brand     : qt  
  16.     minor_version   : 512
  17.     compatible_brands: qt  
  18.     creation_time   : 2018-07-26T10:21:26.000000Z
  19.     encoder         : Lavf58.12.100
  20.   Duration: 00:01:00.29, start: 0.000000, bitrate: 1629 kb/s
  21.     Stream #0:0(eng): Video: h264 (High) (avc1 / 0x31637661), yuvj420p(pc), 1600x1200, 1309 kb/s, 60.13 fps, 120 tbr, 60k tbn, 120k tbc (default)
  22.     Metadata:
  23.       creation_time   : 2018-07-26T10:21:26.000000Z
  24.       handler_name    : DataHandler
  25.       encoder         : H.264
  26.     Stream #0:1(eng): Audio: aac (LC) (mp4a / 0x6134706D), 48000 Hz, stereo, fltp, 311 kb/s (default)
  27.     Metadata:
  28.       creation_time   : 2018-07-26T10:21:26.000000Z
  29.       handler_name    : DataHandler
  30. Stream mapping:
  31.   Stream #0:0 -> #0:0 (h264 (native) -> h264 (libx264))
  32.   Stream #0:1 -> #0:1 (aac (native) -> aac (native))
  33. Press [q] to stop, [?] for help
  34. [libx264 @ 0x7fa88d03f400] using cpu capabilities: MMX2 SSE2Fast SSSE3 SSE4.2 AVX FMA3 BMI2 AVX2
  35. [libx264 @ 0x7fa88d03f400] profile High, level 5.1
  36. [libx264 @ 0x7fa88d03f400] 264 - core 152 r2854 e9a5903 - H.264/MPEG-4 AVC codec - Copyleft 2003-2017 - http://www.videolan.org/x264.html - options: cabac=1 ref=3 deblock=1:0:0 analyse=0x3:0x113 me=hex subme=7 psy=1 psy_rd=1.00:0.00 mixed_ref=1 me_range=16 chroma_me=1 trellis=1 8x8dct=1 cqm=0 deadzone=21,11 fast_pskip=1 chroma_qp_offset=-2 threads=12 lookahead_threads=2 sliced_threads=0 nr=0 decimate=1 interlaced=0 bluray_compat=0 constrained_intra=0 bframes=3 b_pyramid=2 b_adapt=1 b_bias=0 direct=1 weightb=1 open_gop=0 weightp=2 keyint=250 keyint_min=25 scenecut=40 intra_refresh=0 rc_lookahead=40 rc=crf mbtree=1 crf=23.0 qcomp=0.60 qpmin=0 qpmax=69 qpstep=4 ip_ratio=1.40 aq=1:1.00
  37. Output #0, mov, to 'test-result.mov':
  38.   Metadata:
  39.     major_brand     : qt  
  40.     minor_version   : 512
  41.     compatible_brands: qt  
  42.     encoder         : Lavf58.12.100
  43.     Stream #0:0(eng): Video: h264 (libx264) (avc1 / 0x31637661), yuvj420p(pc), 1600x1200, q=-1--1, 120 fps, 15360 tbn, 120 tbc (default)
  44.     Metadata:
  45.       creation_time   : 2018-07-26T10:21:26.000000Z
  46.       handler_name    : DataHandler
  47.       encoder         : Lavc58.18.100 libx264
  48.     Side data:
  49.       cpb: bitrate max/min/avg: 0/0/0 buffer size: 0 vbv_delay: -1
  50.     Stream #0:1(eng): Audio: aac (LC) (mp4a / 0x6134706D), 48000 Hz, stereo, fltp, 128 kb/s (default)
  51.     Metadata:
  52.       creation_time   : 2018-07-26T10:21:26.000000Z
  53.       handler_name    : DataHandler
  54.       encoder         : Lavc58.18.100 aac
  55. Past duration 0.997993 too large
  56. Past duration 1.191994 too large
  57. frame=   83 fps=0.0 q=33.0 size=       0kB time=00:00:00.78 bitrate=   0.4kbits/s dup=39 drop=5 speed=1.55x    
  58. frame=  193 fps=190 q=33.0 size=       0kB time=00:00:01.68 bitrate=   0.2kbits/s dup=94 drop=5 speed=1.66x    
  59. frame=  301 fps=198 q=33.0 size=       0kB time=00:00:02.60 bitrate=   0.1kbits/s dup=148 drop=5 speed=1.71x    
  60. frame=  411 fps=204 q=33.0 size=       0kB time=00:00:03.49 bitrate=   0.1kbits/s dup=203 drop=5 speed=1.73x    
  61. frame=  521 fps=206 q=33.0 size=       0kB time=00:00:04.43 bitrate=   0.1kbits/s dup=258 drop=5 speed=1.76x    
  62. frame=  623 fps=205 q=33.0 size=       0kB time=00:00:05.29 bitrate=   0.1kbits/s dup=309 drop=5 speed=1.74x    
  63. frame=  741 fps=210 q=33.0 size=       0kB time=00:00:06.27 bitrate=   0.0kbits/s dup=368 drop=5 speed=1.77x    
  64. frame=  851 fps=211 q=33.0 size=     256kB time=00:00:07.18 bitrate= 291.7kbits/s dup=423 drop=5 speed=1.78x    
  65. frame=  969 fps=213 q=33.0 size=     256kB time=00:00:08.17 bitrate= 256.7kbits/s dup=482 drop=5 speed= 1.8x    
  66. frame= 1081 fps=214 q=33.0 size=     256kB time=00:00:09.10 bitrate= 230.3kbits/s dup=538 drop=5 speed= 1.8x    
  67. frame= 1199 fps=215 q=33.0 size=     256kB time=00:00:10.09 bitrate= 207.9kbits/s dup=597 drop=5 speed=1.81x    
  68. frame= 1309 fps=216 q=33.0 size=     256kB time=00:00:11.00 bitrate= 190.5kbits/s dup=652 drop=5 speed=1.81x    
  69. frame= 1421 fps=216 q=33.0 size=     256kB time=00:00:11.94 bitrate= 175.6kbits/s dup=708 drop=5 speed=1.82x    
  70. frame= 1537 fps=217 q=33.0 size=     256kB time=00:00:12.88 bitrate= 162.8kbits/s dup=766 drop=5 speed=1.82x    
  71. frame= 1627 fps=215 q=33.0 size=     512kB time=00:00:13.65 bitrate= 307.2kbits/s dup=811 drop=5 speed= 1.8x    
  72. frame= 1737 fps=215 q=33.0 size=     512kB time=00:00:14.54 bitrate= 288.3kbits/s dup=866 drop=5 speed= 1.8x    
  73. frame= 1837 fps=213 q=33.0 size=     512kB time=00:00:15.40 bitrate= 272.3kbits/s dup=916 drop=5 speed=1.79x    
  74. frame= 1947 fps=214 q=33.0 size=     512kB time=00:00:16.32 bitrate= 257.0kbits/s dup=971 drop=5 speed=1.79x    
  75. More than 1000 frames duplicated
  76. frame= 2049 fps=213 q=33.0 size=     512kB time=00:00:17.15 bitrate= 244.6kbits/s dup=1022 drop=5 speed=1.78x    
  77. frame= 2149 fps=212 q=33.0 size=     512kB time=00:00:17.98 bitrate= 233.2kbits/s dup=1072 drop=5 speed=1.77x    
  78. frame= 2245 fps=211 q=33.0 size=     512kB time=00:00:18.81 bitrate= 222.9kbits/s dup=1120 drop=5 speed=1.77x    
  79. frame= 2317 fps=208 q=33.0 size=     768kB time=00:00:19.41 bitrate= 324.1kbits/s dup=1156 drop=5 speed=1.74x    
  80. frame= 2405 fps=206 q=33.0 size=     768kB time=00:00:20.13 bitrate= 312.4kbits/s dup=1200 drop=5 speed=1.73x    
  81. frame= 2487 fps=205 q=33.0 size=     768kB time=00:00:20.80 bitrate= 302.5kbits/s dup=1241 drop=5 speed=1.71x    
  82. frame= 2571 fps=203 q=33.0 size=     768kB time=00:00:21.52 bitrate= 292.3kbits/s dup=1283 drop=5 speed= 1.7x    
  83. frame= 2669 fps=203 q=33.0 size=     768kB time=00:00:22.31 bitrate= 282.0kbits/s dup=1332 drop=5 speed=1.69x    
  84. frame= 2771 fps=203 q=33.0 size=     768kB time=00:00:23.18 bitrate= 271.3kbits/s dup=1383 drop=5 speed= 1.7x    
  85. frame= 2871 fps=203 q=33.0 size=     768kB time=00:00:24.02 bitrate= 261.9kbits/s dup=1433 drop=5 speed=1.69x    
  86. frame= 2977 fps=203 q=33.0 size=     768kB time=00:00:24.91 bitrate= 252.5kbits/s dup=1486 drop=5 speed= 1.7x    
  87. frame= 3073 fps=202 q=33.0 size=    1024kB time=00:00:25.68 bitrate= 326.6kbits/s dup=1534 drop=5 speed=1.69x    
  88. frame= 3177 fps=203 q=33.0 size=    1024kB time=00:00:26.58 bitrate= 315.6kbits/s dup=1586 drop=5 speed=1.69x    
  89. frame= 3273 fps=202 q=33.0 size=    1024kB time=00:00:27.34 bitrate= 306.7kbits/s dup=1634 drop=5 speed=1.69x    
  90. frame= 3373 fps=202 q=33.0 size=    1024kB time=00:00:28.18 bitrate= 297.7kbits/s dup=1684 drop=5 speed=1.69x    
  91. frame= 3477 fps=202 q=33.0 size=    1024kB time=00:00:29.07 bitrate= 288.5kbits/s dup=1736 drop=5 speed=1.69x    
  92. frame= 3577 fps=202 q=33.0 size=    1024kB time=00:00:29.90 bitrate= 280.5kbits/s dup=1786 drop=5 speed=1.69x    
  93. frame= 3675 fps=202 q=33.0 size=    1024kB time=00:00:30.72 bitrate= 273.1kbits/s dup=1835 drop=5 speed=1.69x    
  94. frame= 3779 fps=202 q=33.0 size=    1024kB time=00:00:31.59 bitrate= 265.5kbits/s dup=1887 drop=5 speed=1.69x    
  95. frame= 3877 fps=202 q=33.0 size=    1280kB time=00:00:32.38 bitrate= 323.8kbits/s dup=1936 drop=5 speed=1.68x    
  96. frame= 3979 fps=202 q=33.0 size=    1280kB time=00:00:33.23 bitrate= 315.5kbits/s dup=1987 drop=5 speed=1.68x    
  97. frame= 4073 fps=201 q=33.0 size=    1280kB time=00:00:34.04 bitrate= 308.0kbits/s dup=2034 drop=5 speed=1.68x    
  98. frame= 4171 fps=201 q=33.0 size=    1280kB time=00:00:34.85 bitrate= 300.8kbits/s dup=2083 drop=5 speed=1.68x    
  99. frame= 4275 fps=201 q=33.0 size=    1280kB time=00:00:35.73 bitrate= 293.5kbits/s dup=2135 drop=5 speed=1.68x    
  100. frame= 4373 fps=201 q=33.0 size=    1280kB time=00:00:36.54 bitrate= 286.9kbits/s dup=2184 drop=5 speed=1.68x    
  101. frame= 4477 fps=201 q=33.0 size=    1280kB time=00:00:37.39 bitrate= 280.4kbits/s dup=2236 drop=5 speed=1.68x    
  102. frame= 4571 fps=201 q=33.0 size=    1536kB time=00:00:38.18 bitrate= 329.5kbits/s dup=2283 drop=5 speed=1.68x    
  103. frame= 4677 fps=201 q=33.0 size=    1536kB time=00:00:39.06 bitrate= 322.1kbits/s dup=2336 drop=5 speed=1.68x    
  104. frame= 4779 fps=201 q=33.0 size=    1536kB time=00:00:39.91 bitrate= 315.3kbits/s dup=2387 drop=5 speed=1.68x    
  105. frame= 4873 fps=201 q=33.0 size=    1536kB time=00:00:40.68 bitrate= 309.3kbits/s dup=2434 drop=5 speed=1.68x    
  106. frame= 4973 fps=201 q=33.0 size=    1536kB time=00:00:41.53 bitrate= 302.9kbits/s dup=2484 drop=5 speed=1.68x    
  107. frame= 5071 fps=201 q=33.0 size=    1536kB time=00:00:42.36 bitrate= 297.0kbits/s dup=2533 drop=5 speed=1.68x    
  108. frame= 5175 fps=201 q=33.0 size=    1536kB time=00:00:43.22 bitrate= 291.1kbits/s dup=2585 drop=5 speed=1.68x    
  109. frame= 5275 fps=201 q=33.0 size=    1536kB time=00:00:44.05 bitrate= 285.6kbits/s dup=2635 drop=5 speed=1.68x    
  110. frame= 5369 fps=200 q=33.0 size=    1792kB time=00:00:44.84 bitrate= 327.4kbits/s dup=2682 drop=5 speed=1.67x    
  111. frame= 5473 fps=201 q=33.0 size=    1792kB time=00:00:45.71 bitrate= 321.1kbits/s dup=2734 drop=5 speed=1.68x    
  112. frame= 5571 fps=200 q=33.0 size=    1792kB time=00:00:46.52 bitrate= 315.5kbits/s dup=2783 drop=5 speed=1.67x    
  113. frame= 5665 fps=200 q=33.0 size=    1792kB time=00:00:47.31 bitrate= 310.3kbits/s dup=2830 drop=5 speed=1.67x    
  114. frame= 5763 fps=200 q=33.0 size=    1792kB time=00:00:48.12 bitrate= 305.0kbits/s dup=2879 drop=5 speed=1.67x    
  115. frame= 5853 fps=200 q=33.0 size=    1792kB time=00:00:48.87 bitrate= 300.4kbits/s dup=2924 drop=5 speed=1.67x    
  116. frame= 5949 fps=199 q=33.0 size=    1792kB time=00:00:49.68 bitrate= 295.5kbits/s dup=2972 drop=5 speed=1.67x    
  117. frame= 6047 fps=199 q=33.0 size=    1792kB time=00:00:50.49 bitrate= 290.7kbits/s dup=3021 drop=5 speed=1.66x    
  118. frame= 6135 fps=199 q=33.0 size=    2048kB time=00:00:51.22 bitrate= 327.5kbits/s dup=3065 drop=5 speed=1.66x    
  119. frame= 6235 fps=199 q=33.0 size=    2048kB time=00:00:52.03 bitrate= 322.4kbits/s dup=3115 drop=5 speed=1.66x    
  120. frame= 6327 fps=199 q=33.0 size=    2048kB time=00:00:52.82 bitrate= 317.6kbits/s dup=3161 drop=5 speed=1.66x    
  121. frame= 6429 fps=199 q=33.0 size=    2048kB time=00:00:53.67 bitrate= 312.6kbits/s dup=3212 drop=5 speed=1.66x    
  122. frame= 6525 fps=198 q=33.0 size=    2048kB time=00:00:54.48 bitrate= 307.9kbits/s dup=3260 drop=5 speed=1.66x    
  123. frame= 6623 fps=198 q=33.0 size=    2048kB time=00:00:55.29 bitrate= 303.4kbits/s dup=3309 drop=5 speed=1.66x    
  124. frame= 6725 fps=198 q=33.0 size=    2048kB time=00:00:56.14 bitrate= 298.8kbits/s dup=3360 drop=5 speed=1.66x    
  125. frame= 6821 fps=198 q=33.0 size=    2304kB time=00:00:56.93 bitrate= 331.5kbits/s dup=3408 drop=5 speed=1.65x    
  126. frame= 6925 fps=198 q=33.0 size=    2304kB time=00:00:57.81 bitrate= 326.5kbits/s dup=3460 drop=5 speed=1.66x    
  127. frame= 7025 fps=198 q=33.0 size=    2304kB time=00:00:58.64 bitrate= 321.8kbits/s dup=3510 drop=5 speed=1.66x    
  128. frame= 7119 fps=198 q=33.0 size=    2304kB time=00:00:59.43 bitrate= 317.6kbits/s dup=3557 drop=5 speed=1.65x    
  129. frame= 7221 fps=198 q=33.0 size=    2304kB time=00:01:00.24 bitrate= 313.3kbits/s dup=3608 drop=5 speed=1.65x    
  130. frame= 7233 fps=197 q=-1.0 Lsize=    2603kB time=00:01:00.28 bitrate= 353.7kbits/s dup=3614 drop=5 speed=1.64x    
  131. video:1497kB audio:958kB subtitle:0kB other streams:0kB global headers:0kB muxing overhead: 6.043136%
  132. [libx264 @ 0x7fa88d03f400] frame I:29    Avg QP:20.86  size: 32743
  133. [libx264 @ 0x7fa88d03f400] frame P:1822  Avg QP:26.08  size:   109
  134. [libx264 @ 0x7fa88d03f400] frame B:5382  Avg QP:40.29  size:    71
  135. [libx264 @ 0x7fa88d03f400] consecutive B-frames:  0.8%  0.0%  0.0% 99.2%
  136. [libx264 @ 0x7fa88d03f400] mb I  I16..4: 15.3% 73.6% 11.1%
  137. [libx264 @ 0x7fa88d03f400] mb P  I16..4:  0.0%  0.2%  0.0%  P16..4:  0.2%  0.0%  0.0%  0.0%  0.0%    skip:99.6%
  138. [libx264 @ 0x7fa88d03f400] mb B  I16..4:  0.0%  0.0%  0.0%  B16..8:  0.1%  0.0%  0.0%  direct: 0.0%  skip:99.9%  L0:22.0% L1:78.0% BI: 0.0%
  139. [libx264 @ 0x7fa88d03f400] 8x8 transform intra:75.3% inter:53.4%
  140. [libx264 @ 0x7fa88d03f400] coded y,uvDC,uvAC intra: 9.2% 7.3% 4.2% inter: 0.0% 0.0% 0.0%
  141. [libx264 @ 0x7fa88d03f400] i16 v,h,dc,p: 43% 56%  1%  0%
  142. [libx264 @ 0x7fa88d03f400] i8 v,h,dc,ddl,ddr,vr,hd,vl,hu: 64%  8% 26%  0%  0%  0%  0%  0%  0%
  143. [libx264 @ 0x7fa88d03f400] i4 v,h,dc,ddl,ddr,vr,hd,vl,hu: 45% 22%  9%  4%  5%  5%  3%  4%  3%
  144. [libx264 @ 0x7fa88d03f400] i8c dc,h,v,p: 91%  5%  3%  0%
  145. [libx264 @ 0x7fa88d03f400] Weighted P-Frames: Y:0.0% UV:0.0%
  146. [libx264 @ 0x7fa88d03f400] ref P L0: 78.1% 15.7%  2.8%  3.4%
  147. [libx264 @ 0x7fa88d03f400] ref B L0: 88.2%  9.4%  2.4%
  148. [libx264 @ 0x7fa88d03f400] ref B L1: 97.5%  2.5%
  149. [libx264 @ 0x7fa88d03f400] kb/s:203.31
  150. [aac @ 0x7fa88d02a200] Qavg: 338.465
RAW Paste Data
We use cookies for various purposes including analytics. By continuing to use Pastebin, you agree to our use of cookies as described in the Cookies Policy. OK, I Understand
 
Top