SHARE
TWEET

[9volt] Slow Start - 02 [720p] [4CD252DA].mkv

a guest Jan 29th, 2018 50 Never
Not a member of Pastebin yet? Sign Up, it unlocks many cool features!
  1. General
  2. Unique ID                                : 228046155883831432770131458467195655648 (0xAB90178F672EEBBA8F676B5F47B215E0)
  3. Format                                   : Matroska
  4. Format version                           : Version 4 / Version 2
  5. File size                                : 208 MiB
  6. Duration                                 : 23 min 45 s
  7. Overall bit rate                         : 1 225 kb/s
  8. Encoded date                             : UTC 2018-01-25 02:49:17
  9. Writing application                      : mkvmerge v13.0.0 ('The Juggler') 64bit
  10. Writing library                          : libebml v1.3.4 + libmatroska v1.4.5 / Lavf58.5.100
  11. Attachments                              : ARLRDBD_0.TTF / Arvo-Regular.ttf / Asap-Bold_0.otf / Bitter-Bold.otf / Blokletters-Viltstift_0.ttf / Change Tomorrow Today.ttf / GandhiSans-Bold_2.otf / GandhiSans-BoldItalic_2.otf / KFHIMAJI-FFF-MOD-FFF_0.TTF / LEVIMARKER.TTF
  12.  
  13. Video
  14. ID                                       : 1
  15. Format                                   : AVC
  16. Format/Info                              : Advanced Video Codec
  17. Format profile                           : High@L5
  18. Format settings, CABAC                   : Yes
  19. Format settings, ReFrames                : 16 frames
  20. Codec ID                                 : V_MPEG4/ISO/AVC
  21. Duration                                 : 23 min 45 s
  22. Bit rate                                 : 1 089 kb/s
  23. Width                                    : 1 280 pixels
  24. Height                                   : 720 pixels
  25. Display aspect ratio                     : 16:9
  26. Frame rate mode                          : Constant
  27. Frame rate                               : 23.810 FPS
  28. Color space                              : YUV
  29. Chroma subsampling                       : 4:2:0
  30. Bit depth                                : 8 bits
  31. Scan type                                : Progressive
  32. Bits/(Pixel*Frame)                       : 0.050
  33. Stream size                              : 185 MiB (89%)
  34. Writing library                          : x264 core 155 r2893 b00bcaf
  35. Encoding settings                        : cabac=1 / ref=16 / deblock=1:0:0 / analyse=0x3:0x133 / me=umh / subme=10 / psy=1 / psy_rd=1.00:0.00 / mixed_ref=1 / me_range=24 / chroma_me=1 / trellis=2 / 8x8dct=1 / cqm=0 / deadzone=21,11 / fast_pskip=1 / chroma_qp_offset=-2 / threads=12 / lookahead_threads=2 / sliced_threads=0 / nr=0 / decimate=1 / interlaced=0 / bluray_compat=0 / constrained_intra=0 / bframes=8 / b_pyramid=2 / b_adapt=2 / b_bias=0 / direct=3 / weightb=1 / open_gop=0 / weightp=2 / keyint=250 / keyint_min=23 / scenecut=40 / intra_refresh=0 / rc_lookahead=60 / rc=crf / mbtree=1 / crf=18.0 / qcomp=0.60 / qpmin=0 / qpmax=69 / qpstep=4 / ip_ratio=1.40 / aq=1:1.00
  36. Default                                  : Yes
  37. Forced                                   : No
  38.  
  39. Audio
  40. ID                                       : 2
  41. Format                                   : AAC
  42. Format/Info                              : Advanced Audio Codec
  43. Format profile                           : LC
  44. Codec ID                                 : A_AAC
  45. Duration                                 : 23 min 45 s
  46. Bit rate                                 : 128 kb/s
  47. Channel(s)                               : 2 channels
  48. Channel positions                        : Front: L R
  49. Sampling rate                            : 44.1 kHz
  50. Frame rate                               : 43.066 FPS (1024 spf)
  51. Compression mode                         : Lossy
  52. Stream size                              : 21.7 MiB (10%)
  53. Language                                 : Japanese
  54. Default                                  : Yes
  55. Forced                                   : No
  56.  
  57. Text
  58. ID                                       : 3
  59. Format                                   : ASS
  60. Codec ID                                 : S_TEXT/ASS
  61. Codec ID/Info                            : Advanced Sub Station Alpha
  62. Duration                                 : 23 min 33 s
  63. Bit rate                                 : 626 b/s
  64. Count of elements                        : 1013
  65. Compression mode                         : Lossless
  66. Stream size                              : 108 KiB (0%)
  67. Language                                 : English
  68. Default                                  : Yes
  69. Forced                                   : No
  70.  
  71. Menu
  72. 00:00:00.000                             : :Chapter 01
  73. 00:01:27.000                             : :OP
  74. 00:02:57.000                             : :A
  75. 00:12:32.000                             : :Exercise Wears Me Out
  76. 00:22:10.000                             : :ED
  77. 00:23:40.000                             : :Preview
RAW Paste Data
We use cookies for various purposes including analytics. By continuing to use Pastebin, you agree to our use of cookies as described in the Cookies Policy. OK, I Understand
Top