SHARE
TWEET

Breakthrough BluRay 720p

dirtyharrys Jul 4th, 2019 (edited) 95 Never
Not a member of Pastebin yet? Sign Up, it unlocks many cool features!
  1. General
  2. Unique ID                   : 196183845111347424714791213123771427925 (0x9397A25A4EF4AAA83A8AE00B88EDEC55)
  3. Complete name               : E:\QlJSQnJlYWt0aHJvdWdo.mkv
  4. Format                      : Matroska
  5. Format version              : Version 4
  6. File size                   : 1.95 GiB
  7. Duration                    : 1 h 56 min
  8. Overall bit rate            : 2 398 kb/s
  9. Movie name                  : Breakthrough BR-RIP / Breakthrough BR-RIP
  10. Encoded date                : UTC 2019-07-11 08:09:53
  11. Writing application         : mkvmerge v30.1.0 ('Forever And More') 32-bit
  12. Writing library             : libebml v1.3.6 + libmatroska v1.4.9
  13. Copyright                   : Movies HDs 2019
  14. ARTIST                      : HarshLearner
  15.  
  16. Video
  17. ID                          : 1
  18. Format                      : AVC
  19. Format/Info                 : Advanced Video Codec
  20. Format profile              : High@L4.1
  21. Format settings             : CABAC / 4 Ref Frames
  22. Format settings, CABAC      : Yes
  23. Format settings, ReFrames   : 4 frames
  24. Codec ID                    : V_MPEG4/ISO/AVC
  25. Duration                    : 1 h 56 min
  26. Bit rate                    : 1 500 kb/s
  27. Width                       : 1 280 pixels
  28. Height                      : 536 pixels
  29. Display aspect ratio        : 2.40:1
  30. Frame rate mode             : Constant
  31. Frame rate                  : 23.976 (23976/1000) FPS
  32. Color space                 : YUV
  33. Chroma subsampling          : 4:2:0
  34. Bit depth                   : 8 bits
  35. Scan type                   : Progressive
  36. Bits/(Pixel*Frame)          : 0.091
  37. Stream size                 : 1.22 GiB (63%)
  38. Title                       : Breakthrough
  39. Writing library             : x264 core 152 r2851M ba24899
  40. Default                     : Yes
  41. Forced                      : No
  42.  
  43. Audio #1
  44. ID                          : 2
  45. Format                      : AC-3
  46. Format/Info                 : Audio Coding 3
  47. Commercial name             : Dolby Digital
  48. Codec ID                    : A_AC3
  49. Duration                    : 1 h 56 min
  50. Bit rate mode               : Constant
  51. Bit rate                    : 448 kb/s
  52. Channel(s)                  : 6 channels
  53. Channel layout              : L R C LFE Ls Rs
  54. Sampling rate               : 48.0 kHz
  55. Frame rate                  : 31.250 FPS (1536 SPF)
  56. Bit depth                   : 16 bits
  57. Compression mode            : Lossy
  58. Stream size                 : 373 MiB (19%)
  59. Language                    : English
  60. Service kind                : Complete Main
  61. Default                     : No
  62. Forced                      : No
  63.  
  64. Audio #2
  65. ID                          : 3
  66. Format                      : AC-3
  67. Format/Info                 : Audio Coding 3
  68. Commercial name             : Dolby Digital
  69. Codec ID                    : A_AC3
  70. Duration                    : 1 h 56 min
  71. Bit rate mode               : Constant
  72. Bit rate                    : 448 kb/s
  73. Channel(s)                  : 6 channels
  74. Channel layout              : L R C LFE Ls Rs
  75. Sampling rate               : 48.0 kHz
  76. Frame rate                  : 31.250 FPS (1536 SPF)
  77. Bit depth                   : 16 bits
  78. Compression mode            : Lossy
  79. Stream size                 : 373 MiB (19%)
  80. Language                    : Spanish
  81. Service kind                : Complete Main
  82. Default                     : Yes
  83. Forced                      : Yes
  84.  
  85. Text #1
  86. ID                          : 4
  87. Format                      : UTF-8
  88. Codec ID                    : S_TEXT/UTF8
  89. Codec ID/Info               : UTF-8 Plain Text
  90. Duration                    : 1 h 47 min
  91. Bit rate                    : 61 b/s
  92. Count of elements           : 1764
  93. Stream size                 : 48.9 KiB (0%)
  94. Language                    : English
  95. Default                     : No
  96. Forced                      : No
  97.  
  98. Text #2
  99. ID                          : 5
  100. Format                      : UTF-8
  101. Codec ID                    : S_TEXT/UTF8
  102. Codec ID/Info               : UTF-8 Plain Text
  103. Duration                    : 1 h 50 min
  104. Bit rate                    : 57 b/s
  105. Count of elements           : 1663
  106. Stream size                 : 46.6 KiB (0%)
  107. Language                    : Spanish
  108. Default                     : Yes
  109. Forced                      : Yes
  110.  
  111. Text #3
  112. ID                          : 6
  113. Format                      : UTF-8
  114. Codec ID                    : S_TEXT/UTF8
  115. Codec ID/Info               : UTF-8 Plain Text
  116. Duration                    : 1 h 50 min
  117. Bit rate                    : 4 b/s
  118. Count of elements           : 107
  119. Stream size                 : 3.85 KiB (0%)
  120. Language                    : Spanish
  121. Default                     : No
  122. Forced                      : No
  123.  
  124. Menu
  125. 00:00:00.000                : :Chapter 01
  126. 00:04:29.519                : :Chapter 02
  127. 00:08:12.534                : :Chapter 03
  128. 00:15:41.440                : :Chapter 04
  129. 00:22:07.368                : :Chapter 05
  130. 00:24:59.915                : :Chapter 06
  131. 00:30:03.635                : :Chapter 07
  132. 00:35:26.416                : :Chapter 08
  133. 00:40:45.401                : :Chapter 09
  134. 00:45:39.362                : :Chapter 10
  135. 00:49:40.978                : :Chapter 11
  136. 00:55:18.357                : :Chapter 12
  137. 00:59:48.627                : :Chapter 13
  138. 01:04:34.746                : :Chapter 14
  139. 01:08:44.287                : :Chapter 15
  140. 01:12:40.106                : :Chapter 16
  141. 01:18:37.046                : :Chapter 17
  142. 01:26:36.316                : :Chapter 18
  143. 01:31:12.926                : :Chapter 19
  144. 01:37:36.934                : :Chapter 20
  145. 01:41:48.644                : :Chapter 21
  146. 01:45:39.291                : :Chapter 22
  147. 01:48:00.849                : :Chapter 23
  148. 01:51:55.918                : :Chapter 24
RAW Paste Data
We use cookies for various purposes including analytics. By continuing to use Pastebin, you agree to our use of cookies as described in the Cookies Policy. OK, I Understand
Not a member of Pastebin yet?
Sign Up, it unlocks many cool features!
 
Top