Guest User

Bleach S02E01

a guest
Nov 11th, 2017
341
Never
Not a member of Pastebin yet? Sign Up, it unlocks many cool features!
  1. General
  2. Unique ID : 255139288999588153245311614427088465938 (0xBFF20A27A47F48BBA4696F3E05D2B012)
  3. Complete name : [bonkai77].Bleach.Episode.21.Enter!.The.World.of.the.Shinigami.1080p.Dual.Audio..Bluray.10bit.mkv
  4. Format : Matroska
  5. Format version : Version 4 / Version 2
  6. File size : 198 MiB
  7. Duration : 23 min 14 s
  8. Overall bit rate : 1 189 kb/s
  9. Encoded date : UTC 2017-03-27 17:19:17
  10. Writing application : mkvmerge v10.0.0 ('To Drown In You') 64bit
  11. Writing library : libebml v1.3.4 + libmatroska v1.4.5
  12.  
  13. Video
  14. ID : 1
  15. Format : HEVC
  16. Format/Info : High Efficiency Video Coding
  17. Format profile : Main 10@L4@Main
  18. Codec ID : V_MPEGH/ISO/HEVC
  19. Duration : 23 min 14 s
  20. Bit rate : 1 003 kb/s
  21. Width : 1 440 pixels
  22. Height : 1 080 pixels
  23. Display aspect ratio : 4:3
  24. Frame rate mode : Constant
  25. Frame rate : 23.976 (24000/1001) FPS
  26. Color space : YUV
  27. Chroma subsampling : 4:2:0
  28. Bit depth : 10 bits
  29. Bits/(Pixel*Frame) : 0.027
  30. Stream size : 167 MiB (84%)
  31. Title : [bonkai77]
  32. Writing library : x265 2.2+17-a2fe29ca5c6c:[Windows][GCC 5.3.1][64 bit] 10bit
  33. Encoding settings : cpuid=1173503 / frame-threads=2 / numa-pools=4 / wpp / no-pmode / no-pme / no-psnr / no-ssim / log-level=2 / input-csp=1 / input-res=1440x1080 / interlace=0 / total-frames=33445 / level-idc=0 / high-tier=1 / uhd-bd=0 / ref=6 / no-allow-non-conformance / no-repeat-headers / annexb / no-aud / no-hrd / info / hash=0 / no-temporal-layers / open-gop / min-keyint=23 / keyint=250 / bframes=8 / b-adapt=2 / b-pyramid / bframe-bias=0 / rc-lookahead=60 / lookahead-slices=0 / scenecut=40 / no-intra-refresh / ctu=32 / min-cu-size=8 / rect / no-amp / max-tu-size=16 / tu-inter-depth=1 / tu-intra-depth=1 / limit-tu=0 / rdoq-level=2 / signhide / no-tskip / nr-intra=0 / nr-inter=0 / no-constrained-intra / no-strong-intra-smoothing / max-merge=2 / limit-refs=3 / limit-modes / me=3 / subme=5 / merange=57 / temporal-mvp / weightp / weightb / no-analyze-src-pics / no-deblock / no-sao / no-sao-non-deblock / rd=5 / no-early-skip / rskip / no-fast-intra / no-tskip-fast / no-cu-lossless / no-b-intra / rdpenalty=0 / psy-rd=0.80 / psy-rdoq=2.00 / no-rd-refine / analysis-mode=0 / no-lossless / cbqpoffs=0 / crqpoffs=0 / rc=crf / crf=22.0 / qcomp=0.60 / qpstep=4 / stats-write=0 / stats-read=0 / ipratio=1.40 / pbratio=1.30 / aq-mode=2 / aq-strength=1.00 / cutree / zone-count=0 / no-strict-cbr / qg-size=32 / no-rc-grain / qpmax=69 / qpmin=0 / sar=0 / overscan=0 / videoformat=5 / range=0 / colorprim=2 / transfer=2 / colormatrix=2 / chromaloc=0 / display-window=0 / max-cll=0,0 / min-luma=0 / max-luma=1023 / log2-max-poc-lsb=8 / vui-timing-info / vui-hrd-info / slices=1 / opt-qp-pps / opt-ref-list-length-pps / no-multi-pass-opt-rps / scenecut-bias=0.05 / no-opt-cu-delta-qp / no-aq-motion
  34. Default : Yes
  35. Forced : No
  36.  
  37. Audio #1
  38. ID : 2
  39. Format : AAC
  40. Format/Info : Advanced Audio Codec
  41. Format profile : LC
  42. Codec ID : A_AAC-2
  43. Duration : 23 min 14 s
  44. Bit rate : 87.2 kb/s
  45. Channel(s) : 2 channels
  46. Channel positions : Front: L R
  47. Sampling rate : 48.0 kHz
  48. Frame rate : 46.875 FPS (1024 SPF)
  49. Compression mode : Lossy
  50. Delay relative to video : 9 ms
  51. Stream size : 14.5 MiB (7%)
  52. Language : English
  53. Default : No
  54. Forced : No
  55.  
  56. Audio #2
  57. ID : 3
  58. Format : AAC
  59. Format/Info : Advanced Audio Codec
  60. Format profile : LC
  61. Codec ID : A_AAC-2
  62. Duration : 23 min 14 s
  63. Bit rate : 88.9 kb/s
  64. Channel(s) : 2 channels
  65. Channel positions : Front: L R
  66. Sampling rate : 48.0 kHz
  67. Frame rate : 46.875 FPS (1024 SPF)
  68. Compression mode : Lossy
  69. Delay relative to video : 9 ms
  70. Stream size : 14.8 MiB (7%)
  71. Language : Japanese
  72. Default : No
  73. Forced : No
  74.  
  75. Text #1
  76. ID : 4
  77. Format : VobSub
  78. Muxing mode : zlib
  79. Codec ID : S_VOBSUB
  80. Codec ID/Info : Picture based subtitle format used on DVDs
  81. Duration : 23 min 11 s
  82. Bit rate : 1 185 b/s
  83. Count of elements : 50
  84. Stream size : 201 KiB (0%)
  85. Title : English Signs/Song Retail
  86. Language : English
  87. Default : Yes
  88. Forced : No
  89.  
  90. Text #2
  91. ID : 5
  92. Format : VobSub
  93. Muxing mode : zlib
  94. Codec ID : S_VOBSUB
  95. Codec ID/Info : Picture based subtitle format used on DVDs
  96. Duration : 23 min 11 s
  97. Bit rate : 5 829 b/s
  98. Count of elements : 335
  99. Stream size : 990 KiB (0%)
  100. Title : English Subs Retail
  101. Language : English
  102. Default : No
  103. Forced : No
  104.  
  105. Menu
  106. 00:00:00.000 : :Chapter 30
  107. 00:00:00.083 : :Chapter 31
  108. 00:01:41.393 : :Chapter 32
  109. 00:11:25.559 : :Chapter 33
  110. 00:21:43.343 : :Chapter 34
  111. 00:22:43.111 : :Chapter 35
  112. 00:23:14.768 : :Chapter 36
RAW Paste Data